  0
SECTION
  2
HEADER
  9
$ACADVER
  1
AC1015
  9
$ACADMAINTVER
 70
     6
  9
$DWGCODEPAGE
  3
ANSI_1252
  9
$INSBASE
 10
0.0
 20
0.0
 30
0.0
  9
$EXTMIN
 10
35.60876761029064
 20
-894.2643970606405
 30
0.0
  9
$EXTMAX
 10
1520.608767610291
 20
155.73560293936
 30
0.0
  9
$LIMMIN
 10
0.0
 20
0.0
  9
$LIMMAX
 10
12.0
 20
9.0
  9
$ORTHOMODE
 70
     0
  9
$REGENMODE
 70
     1
  9
$FILLMODE
 70
     1
  9
$QTEXTMODE
 70
     0
  9
$MIRRTEXT
 70
     1
  9
$LTSCALE
 40
1.0
  9
$ATTMODE
 70
     1
  9
$TEXTSIZE
 40
0.2
  9
$TRACEWID
 40
0.05
  9
$TEXTSTYLE
  7
Standard
  9
$CLAYER
  8
0
  9
$CELTYPE
  6
ByLayer
  9
$CECOLOR
 62
   256
  9
$CELTSCALE
 40
1.0
  9
$DISPSILH
 70
     0
  9
$DIMSCALE
 40
1.0
  9
$DIMASZ
 40
0.18
  9
$DIMEXO
 40
0.0625
  9
$DIMDLI
 40
0.38
  9
$DIMRND
 40
0.0
  9
$DIMDLE
 40
0.0
  9
$DIMEXE
 40
0.18
  9
$DIMTP
 40
0.0
  9
$DIMTM
 40
0.0
  9
$DIMTXT
 40
0.18
  9
$DIMCEN
 40
0.09
  9
$DIMTSZ
 40
0.0
  9
$DIMTOL
 70
     0
  9
$DIMLIM
 70
     0
  9
$DIMTIH
 70
     1
  9
$DIMTOH
 70
     1
  9
$DIMSE1
 70
     0
  9
$DIMSE2
 70
     0
  9
$DIMTAD
 70
     0
  9
$DIMZIN
 70
     0
  9
$DIMBLK
  1

  9
$DIMASO
 70
     1
  9
$DIMSHO
 70
     1
  9
$DIMPOST
  1

  9
$DIMAPOST
  1

  9
$DIMALT
 70
     0
  9
$DIMALTD
 70
     2
  9
$DIMALTF
 40
25.4
  9
$DIMLFAC
 40
1.0
  9
$DIMTOFL
 70
     0
  9
$DIMTVP
 40
0.0
  9
$DIMTIX
 70
     0
  9
$DIMSOXD
 70
     0
  9
$DIMSAH
 70
     0
  9
$DIMBLK1
  1

  9
$DIMBLK2
  1

  9
$DIMSTYLE
  2
Standard
  9
$DIMCLRD
 70
     0
  9
$DIMCLRE
 70
     0
  9
$DIMCLRT
 70
     0
  9
$DIMTFAC
 40
1.0
  9
$DIMGAP
 40
0.09
  9
$DIMJUST
 70
     0
  9
$DIMSD1
 70
     0
  9
$DIMSD2
 70
     0
  9
$DIMTOLJ
 70
     1
  9
$DIMTZIN
 70
     0
  9
$DIMALTZ
 70
     0
  9
$DIMALTTZ
 70
     0
  9
$DIMUPT
 70
     0
  9
$DIMDEC
 70
     4
  9
$DIMTDEC
 70
     4
  9
$DIMALTU
 70
     2
  9
$DIMALTTD
 70
     2
  9
$DIMTXSTY
  7
Standard
  9
$DIMAUNIT
 70
     0
  9
$DIMADEC
 70
     0
  9
$DIMALTRND
 40
0.0
  9
$DIMAZIN
 70
     0
  9
$DIMDSEP
 70
    46
  9
$DIMATFIT
 70
     3
  9
$DIMFRAC
 70
     0
  9
$DIMLDRBLK
  1

  9
$DIMLUNIT
 70
     2
  9
$DIMLWD
 70
    -2
  9
$DIMLWE
 70
    -2
  9
$DIMTMOVE
 70
     0
  9
$LUNITS
 70
     2
  9
$LUPREC
 70
     4
  9
$SKETCHINC
 40
0.1
  9
$FILLETRAD
 40
0.5
  9
$AUNITS
 70
     0
  9
$AUPREC
 70
     0
  9
$MENU
  1
.
  9
$ELEVATION
 40
0.0
  9
$PELEVATION
 40
0.0
  9
$THICKNESS
 40
0.0
  9
$LIMCHECK
 70
     0
  9
$CHAMFERA
 40
0.5
  9
$CHAMFERB
 40
0.5
  9
$CHAMFERC
 40
1.0
  9
$CHAMFERD
 40
0.0
  9
$SKPOLY
 70
     0
  9
$TDCREATE
 40
2456997.441885509
  9
$TDUCREATE
 40
2456997.400218843
  9
$TDUPDATE
 40
2456997.44188588
  9
$TDUUPDATE
 40
2456997.400219213
  9
$TDINDWG
 40
0.0000000116
  9
$TDUSRTIMER
 40
0.0000000116
  9
$USRTIMER
 70
     1
  9
$ANGBASE
 50
0.0
  9
$ANGDIR
 70
     0
  9
$PDMODE
 70
     0
  9
$PDSIZE
 40
0.0
  9
$PLINEWID
 40
0.0
  9
$SPLFRAME
 70
     0
  9
$SPLINETYPE
 70
     6
  9
$SPLINESEGS
 70
     8
  9
$HANDSEED
  5
2C3
  9
$SURFTAB1
 70
     6
  9
$SURFTAB2
 70
     6
  9
$SURFTYPE
 70
     6
  9
$SURFU
 70
     6
  9
$SURFV
 70
     6
  9
$UCSBASE
  2

  9
$UCSNAME
  2

  9
$UCSORG
 10
0.0
 20
0.0
 30
0.0
  9
$UCSXDIR
 10
1.0
 20
0.0
 30
0.0
  9
$UCSYDIR
 10
0.0
 20
1.0
 30
0.0
  9
$UCSORTHOREF
  2

  9
$UCSORTHOVIEW
 70
     0
  9
$UCSORGTOP
 10
0.0
 20
0.0
 30
0.0
  9
$UCSORGBOTTOM
 10
0.0
 20
0.0
 30
0.0
  9
$UCSORGLEFT
 10
0.0
 20
0.0
 30
0.0
  9
$UCSORGRIGHT
 10
0.0
 20
0.0
 30
0.0
  9
$UCSORGFRONT
 10
0.0
 20
0.0
 30
0.0
  9
$UCSORGBACK
 10
0.0
 20
0.0
 30
0.0
  9
$PUCSBASE
  2

  9
$PUCSNAME
  2

  9
$PUCSORG
 10
0.0
 20
0.0
 30
0.0
  9
$PUCSXDIR
 10
1.0
 20
0.0
 30
0.0
  9
$PUCSYDIR
 10
0.0
 20
1.0
 30
0.0
  9
$PUCSORTHOREF
  2

  9
$PUCSORTHOVIEW
 70
     0
  9
$PUCSORGTOP
 10
0.0
 20
0.0
 30
0.0
  9
$PUCSORGBOTTOM
 10
0.0
 20
0.0
 30
0.0
  9
$PUCSORGLEFT
 10
0.0
 20
0.0
 30
0.0
  9
$PUCSORGRIGHT
 10
0.0
 20
0.0
 30
0.0
  9
$PUCSORGFRONT
 10
0.0
 20
0.0
 30
0.0
  9
$PUCSORGBACK
 10
0.0
 20
0.0
 30
0.0
  9
$USERI1
 70
     0
  9
$USERI2
 70
     0
  9
$USERI3
 70
     0
  9
$USERI4
 70
     0
  9
$USERI5
 70
     0
  9
$USERR1
 40
18.1
  9
$USERR2
 40
0.0
  9
$USERR3
 40
0.0
  9
$USERR4
 40
0.0
  9
$USERR5
 40
0.0
  9
$WORLDVIEW
 70
     1
  9
$SHADEDGE
 70
     3
  9
$SHADEDIF
 70
    70
  9
$TILEMODE
 70
     1
  9
$MAXACTVP
 70
    64
  9
$PINSBASE
 10
0.0
 20
0.0
 30
0.0
  9
$PLIMCHECK
 70
     0
  9
$PEXTMIN
 10
1.00000000000000E+20
 20
1.00000000000000E+20
 30
1.00000000000000E+20
  9
$PEXTMAX
 10
-1.00000000000000E+20
 20
-1.00000000000000E+20
 30
-1.00000000000000E+20
  9
$PLIMMIN
 10
0.0
 20
0.0
  9
$PLIMMAX
 10
12.0
 20
9.0
  9
$UNITMODE
 70
     0
  9
$VISRETAIN
 70
     1
  9
$PLINEGEN
 70
     0
  9
$PSLTSCALE
 70
     1
  9
$TREEDEPTH
 70
  3020
  9
$CMLSTYLE
  2
Standard
  9
$CMLJUST
 70
     0
  9
$CMLSCALE
 40
1.0
  9
$PROXYGRAPHICS
 70
     1
  9
$MEASUREMENT
 70
     1
  9
$CELWEIGHT
370
    -1
  9
$ENDCAPS
280
     0
  9
$JOINSTYLE
280
     0
  9
$LWDISPLAY
290
     0
  9
$INSUNITS
 70
     4
  9
$HYPERLINKBASE
  1

  9
$STYLESHEET
  1

  9
$XEDIT
290
     1
  9
$CEPSNTYPE
380
     0
  9
$PSTYLEMODE
290
     1
  9
$FINGERPRINTGUID
  2
{E6D23281-161D-455F-BFF8-86B2F0E2294D}
  9
$VERSIONGUID
  2
{FAEB1C32-E019-11D5-929B-00C0DF256EC4}
  9
$EXTNAMES
290
     1
  9
$PSVPSCALE
 40
0.0
  9
$OLESTARTUP
290
     0
  0
ENDSEC
  0
SECTION
  2
CLASSES
  0
CLASS
  1
ACDBDICTIONARYWDFLT
  2
AcDbDictionaryWithDefault
  3
ObjectDBX Classes
 90
        0
280
     0
281
     0
  0
CLASS
  1
VISUALSTYLE
  2
AcDbVisualStyle
  3
ObjectDBX Classes
 90
     4095
280
     0
281
     0
  0
CLASS
  1
MATERIAL
  2
AcDbMaterial
  3
ObjectDBX Classes
 90
     1153
280
     0
281
     0
  0
CLASS
  1
DICTIONARYVAR
  2
AcDbDictionaryVar
  3
ObjectDBX Classes
 90
        0
280
     0
281
     0
  0
CLASS
  1
ACDBPLACEHOLDER
  2
AcDbPlaceHolder
  3
ObjectDBX Classes
 90
        0
280
     0
281
     0
  0
CLASS
  1
LAYOUT
  2
AcDbLayout
  3
ObjectDBX Classes
 90
        0
280
     0
281
     0
  0
ENDSEC
  0
SECTION
  2
TABLES
  0
TABLE
  2
VPORT
  5
8
330
0
100
AcDbSymbolTable
 70
     1
  0
VPORT
  5
29
330
8
100
AcDbSymbolTableRecord
100
AcDbViewportTableRecord
  2
*Active
 70
     0
 10
0.0
 20
0.0
 11
1.0
 21
1.0
 12
778.1087676102908
 22
-369.2643970606402
 13
0.0
 23
0.0
 14
0.5
 24
0.5
 15
0.5
 25
0.5
 16
0.0
 26
0.0
 36
1.0
 17
0.0
 27
0.0
 37
0.0
 40
1155.000000000001
 41
1.60267857142857
 42
50.0
 43
0.0
 44
0.0
 50
0.0
 51
0.0
 71
     0
 72
   100
 73
     1
 74
     3
 75
     0
 76
     0
 77
     0
 78
     0
281
     0
 65
     1
110
0.0
120
0.0
130
0.0
111
1.0
121
0.0
131
0.0
112
0.0
122
1.0
132
0.0
 79
     0
146
0.0
  0
ENDTAB
  0
TABLE
  2
LTYPE
  5
5
330
0
100
AcDbSymbolTable
 70
     8
  0
LTYPE
  5
14
330
5
100
AcDbSymbolTableRecord
100
AcDbLinetypeTableRecord
  2
ByBlock
 70
     0
  3

 72
    65
 73
     0
 40
0.0
  0
LTYPE
  5
15
330
5
100
AcDbSymbolTableRecord
100
AcDbLinetypeTableRecord
  2
ByLayer
 70
     0
  3

 72
    65
 73
     0
 40
0.0
  0
LTYPE
  5
16
330
5
100
AcDbSymbolTableRecord
100
AcDbLinetypeTableRecord
  2
Continuous
 70
     0
  3
Solid line
 72
    65
 73
     0
 40
0.0
  0
LTYPE
  5
3F
330
5
100
AcDbSymbolTableRecord
100
AcDbLinetypeTableRecord
  2
DASHED
 70
     0
  3
Dashed
 72
    65
 73
     2
 40
15.0
 49
7.0
 74
     0
 49
-8.0
 74
     0
  0
LTYPE
  5
40
330
5
100
AcDbSymbolTableRecord
100
AcDbLinetypeTableRecord
  2
DOTTED
 70
     0
  3
Dotted
 72
    65
 73
     2
 40
1.0
 49
0.0
 74
     0
 49
-1.0
 74
     0
  0
LTYPE
  5
41
330
5
100
AcDbSymbolTableRecord
100
AcDbLinetypeTableRecord
  2
DOT_CENTER
 70
     0
  3
Dot_Center
 72
    65
 73
     4
 40
14.0
 49
12.0
 74
     0
 49
-1.0
 74
     0
 49
0.0
 74
     0
 49
-1.0
 74
     0
  0
LTYPE
  5
42
330
5
100
AcDbSymbolTableRecord
100
AcDbLinetypeTableRecord
  2
LONG_DASHED
 70
     0
  3
Long_Dashed
 72
    65
 73
     2
 40
15.0
 49
10.0
 74
     0
 49
-5.0
 74
     0
  0
LTYPE
  5
43
330
5
100
AcDbSymbolTableRecord
100
AcDbLinetypeTableRecord
  2
DASH_CENTER
 70
     0
  3
Dash_Center
 72
    65
 73
     4
 40
14.0
 49
11.0
 74
     0
 49
-1.0
 74
     0
 49
1.0
 74
     0
 49
-1.0
 74
     0
  0
LTYPE
  5
44
330
5
100
AcDbSymbolTableRecord
100
AcDbLinetypeTableRecord
  2
PHANTOM
 70
     0
  3
Phantom
 72
    65
 73
     6
 40
13.0
 49
10.0
 74
     0
 49
-1.0
 74
     0
 49
0.0
 74
     0
 49
-1.0
 74
     0
 49
0.0
 74
     0
 49
-1.0
 74
     0
  0
LTYPE
  5
45
330
5
100
AcDbSymbolTableRecord
100
AcDbLinetypeTableRecord
  2
CENTER_DASH_DASH
 70
     0
  3
Center_Dash_Dash
 72
    65
 73
     6
 40
14.0
 49
9.0
 74
     0
 49
-1.0
 74
     0
 49
1.0
 74
     0
 49
-1.0
 74
     0
 49
1.0
 74
     0
 49
-1.0
 74
     0
  0
ENDTAB
  0
TABLE
  2
LAYER
  5
2
330
0
100
AcDbSymbolTable
 70
     2
  0
LAYER
  5
10
330
2
100
AcDbSymbolTableRecord
100
AcDbLayerTableRecord
  2
0
 70
     0
 62
     7
  6
Continuous
370
    -3
390
F
  0
LAYER
  5
46
330
2
100
AcDbSymbolTableRecord
100
AcDbLayerTableRecord
  2
1
 70
     0
 62
     7
  6
Continuous
370
    -3
390
F
  0
ENDTAB
  0
TABLE
  2
STYLE
  5
3
330
0
100
AcDbSymbolTable
 70
     4
  0
STYLE
  5
11
330
3
100
AcDbSymbolTableRecord
100
AcDbTextStyleTableRecord
  2
Standard
 70
     0
 40
0.0
 41
1.0
 50
0.0
 71
     0
 42
0.2
  3
txt
  4

  0
STYLE
  5
9B
330
3
100
AcDbSymbolTableRecord
100
AcDbTextStyleTableRecord
  2
CONVERTER_11
 70
     0
 40
0.0
 41
1.2
 50
0.0
 71
     0
 42
0.2
  3
ARIAL.TTF
  4

  0
STYLE
  5
9E
330
3
100
AcDbSymbolTableRecord
100
AcDbTextStyleTableRecord
  2
CONVERTER_12
 70
     0
 40
0.0
 41
1.38
 50
0.0
 71
     0
 42
0.2
  3
ARIAL.TTF
  4

  0
STYLE
  5
27A
330
3
100
AcDbSymbolTableRecord
100
AcDbTextStyleTableRecord
  2
CONVERTER_13
 70
     0
 40
0.0
 41
0.95
 50
0.0
 71
     0
 42
0.2
  3
simplex.shx
  4

  0
ENDTAB
  0
TABLE
  2
VIEW
  5
6
330
0
100
AcDbSymbolTable
 70
     0
  0
ENDTAB
  0
TABLE
  2
UCS
  5
7
330
0
100
AcDbSymbolTable
 70
     0
  0
ENDTAB
  0
TABLE
  2
APPID
  5
9
330
0
100
AcDbSymbolTable
 70
     1
  0
APPID
  5
12
330
9
100
AcDbSymbolTableRecord
100
AcDbRegAppTableRecord
  2
ACAD
 70
     0
  0
ENDTAB
  0
TABLE
  2
DIMSTYLE
  5
A
330
0
100
AcDbSymbolTable
 70
     4
100
AcDbDimStyleTable
  0
DIMSTYLE
105
27
330
A
100
AcDbSymbolTableRecord
100
AcDbDimStyleTableRecord
  2
Standard
 70
     0
178
     0
340
11
  0
DIMSTYLE
105
27E
102
{ACAD_REACTORS
330
27F
102
}
330
A
100
AcDbSymbolTableRecord
100
AcDbDimStyleTableRecord
  2
ME10_DIM_10
 70
     0
 41
15.0
 42
2.5
 44
5.0
 73
     0
 74
     0
 77
     1
 78
     8
140
15.0
147
10.0
172
     1
173
     1
174
     1
175
     1
176
     2
177
     2
271
     2
178
     4
271
     2
340
27A
  0
DIMSTYLE
105
289
102
{ACAD_REACTORS
330
28A
102
}
330
A
100
AcDbSymbolTableRecord
100
AcDbDimStyleTableRecord
  2
ME10_DIM_11
 70
     0
 41
15.0
 42
2.5
 44
5.0
 73
     0
 74
     0
 77
     1
 78
     8
140
15.0
147
10.0
172
     1
173
     1
174
     1
175
     1
176
     2
177
     2
271
     2
178
     4
271
     2
340
27A
  0
DIMSTYLE
105
295
102
{ACAD_REACTORS
330
296
102
}
330
A
100
AcDbSymbolTableRecord
100
AcDbDimStyleTableRecord
  2
ME10_DIM_12
 70
     0
 41
15.0
 42
2.5
 44
5.0
 73
     0
 74
     0
 77
     1
 78
     8
140
15.0
147
10.0
172
     1
173
     1
174
     1
175
     1
176
     2
177
     2
271
     2
178
     4
271
     2
340
27A
  0
ENDTAB
  0
TABLE
  2
BLOCK_RECORD
  5
1
330
0
100
AcDbSymbolTable
 70
     6
  0
BLOCK_RECORD
  5
1F
330
1
100
AcDbSymbolTableRecord
100
AcDbBlockTableRecord
  2
*Model_Space
340
22
  0
BLOCK_RECORD
  5
1B
330
1
100
AcDbSymbolTableRecord
100
AcDbBlockTableRecord
  2
*Paper_Space
340
1E
  0
BLOCK_RECORD
  5
23
330
1
100
AcDbSymbolTableRecord
100
AcDbBlockTableRecord
  2
*Paper_Space0
340
26
  0
BLOCK_RECORD
  5
47
330
1
100
AcDbSymbolTableRecord
100
AcDbBlockTableRecord
  2
_formato_A4
340
0
102
{BLKREFS
331
4B
102
}
  0
BLOCK_RECORD
  5
4A
330
1
100
AcDbSymbolTableRecord
100
AcDbBlockTableRecord
  2
A4_oriz
340
0
102
{BLKREFS
331
4E
102
}
  0
BLOCK_RECORD
  5
274
330
1
100
AcDbSymbolTableRecord
100
AcDbBlockTableRecord
  2
*D3
340
0
  0
BLOCK_RECORD
  5
280
330
1
100
AcDbSymbolTableRecord
100
AcDbBlockTableRecord
  2
*D4
340
0
  0
BLOCK_RECORD
  5
28B
330
1
100
AcDbSymbolTableRecord
100
AcDbBlockTableRecord
  2
*D5
340
0
  0
ENDTAB
  0
ENDSEC
  0
SECTION
  2
BLOCKS
  0
BLOCK
  5
20
330
1F
100
AcDbEntity
  8
0
100
AcDbBlockBegin
  2
*Model_Space
 70
     0
 10
0.0
 20
0.0
 30
0.0
  3
*Model_Space
  1

  0
ENDBLK
  5
21
330
1F
100
AcDbEntity
  8
0
100
AcDbBlockEnd
  0
BLOCK
  5
1C
330
1B
100
AcDbEntity
 67
     1
  8
0
100
AcDbBlockBegin
  2
*Paper_Space
 70
     0
 10
0.0
 20
0.0
 30
0.0
  3
*Paper_Space
  1

  0
ENDBLK
  5
1D
330
1B
100
AcDbEntity
 67
     1
  8
0
100
AcDbBlockEnd
  0
BLOCK
  5
24
330
23
100
AcDbEntity
  8
0
100
AcDbBlockBegin
  2
*Paper_Space0
 70
     0
 10
0.0
 20
0.0
 30
0.0
  3
*Paper_Space0
  1

  0
ENDBLK
  5
25
330
23
100
AcDbEntity
  8
0
100
AcDbBlockEnd
  0
BLOCK
  5
48
330
47
100
AcDbEntity
  8
0
100
AcDbBlockBegin
  2
_formato_A4
 70
     0
 10
304.1217535220582
 20
-178.8528794121281
 30
0.0
  3
_formato_A4
  1

  0
LINE
  5
4F
330
47
100
AcDbEntity
  8
1
  6
Continuous
 62
     7
100
AcDbLine
 10
115.1217535220582
 20
-173.8528794121282
 30
0.0
 11
115.1217535220582
 21
-138.8528794121281
 31
0.0
  0
LINE
  5
50
330
47
100
AcDbEntity
  8
1
  6
Continuous
 62
     7
100
AcDbLine
 10
115.1217535220582
 20
-158.8528794121281
 30
0.0
 11
299.1217535220582
 21
-158.8528794121281
 31
0.0
  0
LINE
  5
51
330
47
100
AcDbEntity
  8
1
  6
Continuous
 62
     7
100
AcDbLine
 10
12.12175352205802
 20
10.14712058787188
 30
0.0
 11
12.12175352205802
 21
-173.8528794121281
 31
0.0
  0
LINE
  5
52
330
47
100
AcDbEntity
  8
1
  6
Continuous
 62
     7
100
AcDbLine
 10
140.1217535220584
 20
-143.8528794121281
 30
0.0
 11
140.1217535220584
 21
-138.8528794121281
 31
0.0
  0
LINE
  5
53
330
47
100
AcDbEntity
  8
1
  6
Continuous
 62
     7
100
AcDbLine
 10
122.1217535220582
 20
-143.8528794121281
 30
0.0
 11
122.1217535220582
 21
-138.8528794121281
 31
0.0
  0
LINE
  5
54
330
47
100
AcDbEntity
  8
1
  6
Continuous
 62
     7
100
AcDbLine
 10
115.1217535220582
 20
-138.8528794121281
 30
0.0
 11
299.1217535220582
 21
-138.8528794121281
 31
0.0
  0
LINE
  5
55
330
47
100
AcDbEntity
  8
1
  6
Continuous
 62
     7
100
AcDbLine
 10
140.1217535220584
 20
-148.8528794121281
 30
0.0
 11
140.1217535220584
 21
-143.8528794121281
 31
0.0
  0
LINE
  5
56
330
47
100
AcDbEntity
  8
1
  6
Continuous
 62
     7
100
AcDbLine
 10
122.1217535220582
 20
-148.8528794121281
 30
0.0
 11
122.1217535220582
 21
-143.8528794121281
 31
0.0
  0
LINE
  5
57
330
47
100
AcDbEntity
  8
1
  6
Continuous
 62
     7
100
AcDbLine
 10
115.1217535220582
 20
-143.8528794121281
 30
0.0
 11
299.1217535220582
 21
-143.8528794121281
 31
0.0
  0
LINE
  5
58
330
47
100
AcDbEntity
  8
1
  6
Continuous
 62
     7
100
AcDbLine
 10
140.1217535220584
 20
-153.8528794121281
 30
0.0
 11
140.1217535220584
 21
-148.8528794121281
 31
0.0
  0
LINE
  5
59
330
47
100
AcDbEntity
  8
1
  6
Continuous
 62
     7
100
AcDbLine
 10
122.1217535220582
 20
-153.8528794121281
 30
0.0
 11
122.1217535220582
 21
-148.8528794121281
 31
0.0
  0
LINE
  5
5A
330
47
100
AcDbEntity
  8
1
  6
Continuous
 62
     7
100
AcDbLine
 10
115.1217535220582
 20
-148.8528794121281
 30
0.0
 11
299.1217535220582
 21
-148.8528794121281
 31
0.0
  0
LINE
  5
5B
330
47
100
AcDbEntity
  8
1
  6
Continuous
 62
     7
100
AcDbLine
 10
140.1217535220584
 20
-158.8528794121281
 30
0.0
 11
140.1217535220584
 21
-153.8528794121281
 31
0.0
  0
LINE
  5
5C
330
47
100
AcDbEntity
  8
1
  6
Continuous
 62
     7
100
AcDbLine
 10
122.1217535220582
 20
-158.8528794121281
 30
0.0
 11
122.1217535220582
 21
-153.8528794121281
 31
0.0
  0
LINE
  5
5D
330
47
100
AcDbEntity
  8
1
  6
Continuous
 62
     7
100
AcDbLine
 10
115.1217535220582
 20
-153.8528794121281
 30
0.0
 11
299.1217535220582
 21
-153.8528794121281
 31
0.0
  0
LINE
  5
5E
102
{ACAD_REACTORS
330
A2
102
}
330
47
100
AcDbEntity
  8
1
  6
Continuous
 62
     7
100
AcDbLine
 10
289.964628361964
 20
-168.2948773317478
 30
0.0
 11
288.6312950286308
 21
-169.0641081009784
 31
0.0
  0
LINE
  5
5F
102
{ACAD_REACTORS
330
A2
102
}
330
47
100
AcDbEntity
  8
1
  6
Continuous
 62
     7
100
AcDbLine
 10
288.7980542108009
 20
-168.1982428794802
 30
0.0
 11
289.6314800596377
 21
-167.7174202743819
 31
0.0
  0
LINE
  5
60
102
{ACAD_REACTORS
330
A2
102
}
330
47
100
AcDbEntity
  8
1
  6
Continuous
 62
     7
100
AcDbLine
 10
288.7980542108009
 20
-166.6862127454615
 30
0.0
 11
288.7980542108009
 21
-168.1982428794802
 31
0.0
  0
LINE
  5
61
102
{ACAD_REACTORS
330
A2
102
}
330
47
100
AcDbEntity
  8
1
  6
Continuous
 62
     7
100
AcDbLine
 10
289.7980542108009
 20
-166.6862127454615
 30
0.0
 11
288.7980542108009
 21
-166.6862127454615
 31
0.0
  0
LINE
  5
62
102
{ACAD_REACTORS
330
A2
102
}
330
47
100
AcDbEntity
  8
1
  6
Continuous
 62
     7
100
AcDbLine
 10
288.7980542108009
 20
-166.0195460787949
 30
0.0
 11
289.7980542108009
 21
-166.0195460787949
 31
0.0
  0
LINE
  5
63
102
{ACAD_REACTORS
330
A2
102
}
330
47
100
AcDbEntity
  8
1
  6
Continuous
 62
     7
100
AcDbLine
 10
288.7980542108009
 20
-164.5075159447762
 30
0.0
 11
288.7980542108009
 21
-166.0195460787949
 31
0.0
  0
LINE
  5
64
102
{ACAD_REACTORS
330
A2
102
}
330
47
100
AcDbEntity
  8
1
  6
Continuous
 62
     7
100
AcDbLine
 10
289.6314800596377
 20
-164.9883385498744
 30
0.0
 11
288.7980542108009
 21
-164.5075159447762
 31
0.0
  0
LINE
  5
65
102
{ACAD_REACTORS
330
A2
102
}
330
47
100
AcDbEntity
  8
1
  6
Continuous
 62
     7
100
AcDbLine
 10
288.6312950286308
 20
-163.6416507232779
 30
0.0
 11
289.964628361964
 21
-164.4108814925087
 31
0.0
  0
LINE
  5
66
102
{ACAD_REACTORS
330
A3
102
}
330
47
100
AcDbEntity
  8
1
  6
Continuous
 62
     7
100
AcDbLine
 10
281.4647208774675
 20
-168.0061488030649
 30
0.0
 11
281.4647208774675
 21
-164.6996100211915
 31
0.0
  0
LINE
  5
67
102
{ACAD_REACTORS
330
A3
102
}
330
47
100
AcDbEntity
  8
1
  6
Continuous
 62
     7
100
AcDbLine
 10
282.1313875441342
 20
-167.8136274948648
 30
0.0
 11
282.1313875441342
 21
-168.0061488030649
 31
0.0
  0
LINE
  5
68
102
{ACAD_REACTORS
330
A3
102
}
330
47
100
AcDbEntity
  8
1
  6
Continuous
 62
     7
100
AcDbLine
 10
282.1313875441342
 20
-164.6996100211915
 30
0.0
 11
282.1313875441342
 21
-167.8136274948648
 31
0.0
  0
LINE
  5
69
102
{ACAD_REACTORS
330
A4
102
}
330
47
100
AcDbEntity
  8
1
  6
Continuous
 62
     7
100
AcDbLine
 10
285.2981467263043
 20
-170.4102619471323
 30
0.0
 11
283.1315725751412
 21
-169.1603153214612
 31
0.0
  0
LINE
  5
6A
102
{ACAD_REACTORS
330
A4
102
}
330
47
100
AcDbEntity
  8
1
  6
Continuous
 62
     7
100
AcDbLine
 10
283.4647208774675
 20
-168.5828582640954
 30
0.0
 11
285.6312950286308
 21
-169.8328048897665
 31
0.0
  0
LINE
  5
6B
102
{ACAD_REACTORS
330
A4
102
}
330
47
100
AcDbEntity
  8
1
  6
Continuous
 62
     7
100
AcDbLine
 10
283.4647208774675
 20
-163.9303792519607
 30
0.0
 11
283.4647208774675
 21
-168.5828582640954
 31
0.0
  0
LINE
  5
6C
102
{ACAD_REACTORS
330
A4
102
}
330
47
100
AcDbEntity
  8
1
  6
Continuous
 62
     7
100
AcDbLine
 10
282.7980542108009
 20
-168.5828582640955
 30
0.0
 11
282.7980542108009
 21
-163.9303792519607
 31
0.0
  0
LINE
  5
6D
102
{ACAD_REACTORS
330
A5
102
}
330
47
100
AcDbEntity
  8
1
  6
Continuous
 62
     7
100
AcDbLine
 10
286.9702871938442
 20
-162.9891789938558
 30
0.0
 11
285.7980542108009
 21
-165.0195460787949
 31
0.0
  0
LINE
  5
6E
102
{ACAD_REACTORS
330
A5
102
}
330
47
100
AcDbEntity
  8
1
  6
Continuous
 62
     7
100
AcDbLine
 10
287.4647208774675
 20
-169.5446103415263
 30
0.0
 11
287.4647208774675
 21
-163.1216621000935
 31
0.0
  0
LINE
  5
6F
102
{ACAD_REACTORS
330
A5
102
}
330
47
100
AcDbEntity
  8
1
  6
Continuous
 62
     7
100
AcDbLine
 10
286.7980542108009
 20
-166.3528794121281
 30
0.0
 11
286.7980542108009
 21
-169.5446103415263
 31
0.0
  0
LINE
  5
70
102
{ACAD_REACTORS
330
A5
102
}
330
47
100
AcDbEntity
  8
1
  6
Continuous
 62
     7
100
AcDbLine
 10
284.7980542108009
 20
-168.0052943394952
 30
0.0
 11
284.7980542108009
 21
-166.3528794121281
 31
0.0
  0
LINE
  5
71
102
{ACAD_REACTORS
330
A5
102
}
330
47
100
AcDbEntity
  8
1
  6
Continuous
 62
     7
100
AcDbLine
 10
284.1313875441342
 20
-166.3528794121281
 30
0.0
 11
284.1313875441342
 21
-168.0052943394952
 31
0.0
  0
LINE
  5
72
102
{ACAD_REACTORS
330
A5
102
}
330
47
100
AcDbEntity
  8
1
  6
Continuous
 62
     7
100
AcDbLine
 10
284.6258212277576
 20
-162.9891789938558
 30
0.0
 11
285.7980542108009
 21
-165.0195460787949
 31
0.0
  0
LINE
  5
73
102
{ACAD_REACTORS
330
A5
102
}
330
47
100
AcDbEntity
  8
1
  6
Continuous
 62
     7
100
AcDbLine
 10
284.1313875441342
 20
-166.3528794121281
 30
0.0
 11
284.1313875441342
 21
-163.1216621000935
 31
0.0
  0
LINE
  5
74
330
47
100
AcDbEntity
  8
1
  6
Continuous
 62
     7
100
AcDbLine
 10
285.7980542108009
 20
-171.3528794121281
 30
0.0
 11
277.3816189356593
 21
-166.4972436764696
 31
0.0
  0
LINE
  5
75
330
47
100
AcDbEntity
  8
1
  6
Continuous
 62
     7
100
AcDbLine
 10
294.2144894859424
 20
-166.4972436764696
 30
0.0
 11
285.7980542108009
 21
-171.3528794121281
 31
0.0
  0
LINE
  5
76
330
47
100
AcDbEntity
  8
1
  6
Continuous
 62
     7
100
AcDbLine
 10
285.7980542108009
 20
-161.3528794121281
 30
0.0
 11
294.2144894859424
 21
-166.2085151477868
 31
0.0
  0
LINE
  5
77
330
47
100
AcDbEntity
  8
1
  6
Continuous
 62
     7
100
AcDbLine
 10
277.3816189356593
 20
-166.2085151477868
 30
0.0
 11
285.7980542108009
 21
-161.3528794121281
 31
0.0
  0
LINE
  5
78
102
{ACAD_REACTORS
330
A5
102
}
330
47
100
AcDbEntity
  8
1
  6
Continuous
 62
     7
100
AcDbLine
 10
284.7980542108009
 20
-164.6208286045593
 30
0.0
 11
284.7980542108009
 21
-166.3528794121281
 31
0.0
  0
LINE
  5
79
102
{ACAD_REACTORS
330
A5
102
}
330
47
100
AcDbEntity
  8
1
  6
Continuous
 62
     7
100
AcDbLine
 10
285.6537166435034
 20
-166.1028794121281
 30
0.0
 11
284.7980542108009
 21
-164.6208286045593
 31
0.0
  0
LINE
  5
7A
102
{ACAD_REACTORS
330
A5
102
}
330
47
100
AcDbEntity
  8
1
  6
Continuous
 62
     7
100
AcDbLine
 10
286.7980542108009
 20
-164.6208286045593
 30
0.0
 11
285.9423917780983
 21
-166.1028794121281
 31
0.0
  0
LINE
  5
7B
102
{ACAD_REACTORS
330
A5
102
}
330
47
100
AcDbEntity
  8
1
  6
Continuous
 62
     7
100
AcDbLine
 10
286.7980542108009
 20
-166.3528794121281
 30
0.0
 11
286.7980542108009
 21
-164.6208286045593
 31
0.0
  0
LINE
  5
7C
102
{ACAD_REACTORS
330
A2
102
}
330
47
100
AcDbEntity
  8
1
  6
Continuous
 62
     7
100
AcDbLine
 10
288.1313875441343
 20
-168.7753795722955
 30
0.0
 11
288.1313875441343
 21
-163.9303792519607
 31
0.0
  0
LINE
  5
7D
330
47
100
AcDbEntity
  8
1
  6
Continuous
 62
     7
100
AcDbLine
 10
299.1217535220582
 20
10.14712058787188
 30
0.0
 11
12.12175352205802
 21
10.14712058787188
 31
0.0
  0
LINE
  5
7E
330
47
100
AcDbEntity
  8
1
  6
Continuous
 62
     7
100
AcDbLine
 10
299.1217535220582
 20
-173.8528794121281
 30
0.0
 11
299.1217535220582
 21
10.14712058787188
 31
0.0
  0
LINE
  5
7F
330
47
100
AcDbEntity
  8
1
  6
Continuous
 62
     7
100
AcDbLine
 10
12.12175352205802
 20
-173.8528794121281
 30
0.0
 11
299.1217535220582
 21
-173.8528794121281
 31
0.0
  0
LINE
  5
80
330
47
100
AcDbEntity
  8
1
  6
Continuous
 62
     7
100
AcDbLine
 10
304.1217535220582
 20
-178.8528794121281
 30
0.0
 11
304.1217535220582
 21
31.147120587872
 31
0.0
  0
LINE
  5
81
330
47
100
AcDbEntity
  8
1
  6
Continuous
 62
     7
100
AcDbLine
 10
304.1217535220582
 20
31.147120587872
 30
0.0
 11
7.12175352205813
 21
31.147120587872
 31
0.0
  0
LINE
  5
82
330
47
100
AcDbEntity
  8
1
  6
Continuous
 62
     7
100
AcDbLine
 10
7.12175352205813
 20
31.147120587872
 30
0.0
 11
7.12175352205813
 21
-178.8528794121281
 31
0.0
  0
LINE
  5
83
330
47
100
AcDbEntity
  8
1
  6
Continuous
 62
     7
100
AcDbLine
 10
7.12175352205813
 20
-178.8528794121281
 30
0.0
 11
304.1217535220582
 21
-178.8528794121281
 31
0.0
  0
LINE
  5
84
330
47
100
AcDbEntity
  8
1
  6
Continuous
 62
     7
100
AcDbLine
 10
155.6217535220579
 20
31.147120587872
 30
0.0
 11
155.6217535220579
 21
16.147120587872
 31
0.0
  0
LINE
  5
85
330
47
100
AcDbEntity
  8
1
  6
Continuous
 62
     7
100
AcDbLine
 10
145.1217535220582
 20
-158.8528794121281
 30
0.0
 11
145.1217535220582
 21
-173.8528794121281
 31
0.0
  0
LINE
  5
86
330
47
100
AcDbEntity
  8
1
  6
Continuous
 62
     7
100
AcDbLine
 10
272.4743548995436
 20
-158.8528794121281
 30
0.0
 11
272.4743548995436
 21
-173.8528794121281
 31
0.0
  0
LINE
  5
87
330
47
100
AcDbEntity
  8
1
  6
Continuous
 62
     7
100
AcDbLine
 10
255.1217535220582
 20
-158.8528794121281
 30
0.0
 11
255.1217535220582
 21
-173.8528794121281
 31
0.0
  0
LINE
  5
88
330
47
100
AcDbEntity
  8
1
  6
Continuous
 62
     7
100
AcDbLine
 10
115.1217535220582
 20
-163.8528794121282
 30
0.0
 11
145.1217535220582
 21
-163.8528794121282
 31
0.0
  0
LINE
  5
89
330
47
100
AcDbEntity
  8
1
  6
Continuous
 62
     7
100
AcDbLine
 10
115.1217535220582
 20
-168.8528794121283
 30
0.0
 11
145.1217535220582
 21
-168.8528794121283
 31
0.0
  0
ARC
  5
8A
102
{ACAD_REACTORS
330
A2
102
}
330
47
100
AcDbEntity
  8
1
  6
Continuous
 62
     7
100
AcDbCircle
 10
289.7980542108009
 20
-168.0061488030649
 30
0.0
 40
0.3333333333333387
100
AcDbArc
 50
299.9816393688313
 51
119.9816393688433
  0
ARC
  5
8B
102
{ACAD_REACTORS
330
A2
102
}
330
47
100
AcDbEntity
  8
1
  6
Continuous
 62
     7
100
AcDbCircle
 10
289.7980542108009
 20
-166.3528794121281
 30
0.0
 40
0.3333333333333997
100
AcDbArc
 50
270.0
 51
90.0
  0
ARC
  5
8C
102
{ACAD_REACTORS
330
A2
102
}
330
47
100
AcDbEntity
  8
1
  6
Continuous
 62
     7
100
AcDbCircle
 10
289.7980542108009
 20
-164.6996100211915
 30
0.0
 40
0.3333333333333955
100
AcDbArc
 50
240.0183606311518
 51
60.01836063115653
  0
ARC
  5
8D
102
{ACAD_REACTORS
330
A3
102
}
330
47
100
AcDbEntity
  8
1
  6
Continuous
 62
     7
100
AcDbCircle
 10
281.7980542108009
 20
-168.0061488030649
 30
0.0
 40
0.3333333333333712
100
AcDbArc
 50
180.0
 51
0.0
  0
ARC
  5
8E
102
{ACAD_REACTORS
330
A3
102
}
330
47
100
AcDbEntity
  8
1
  6
Continuous
 62
     7
100
AcDbCircle
 10
281.7980542108009
 20
-164.6996100211915
 30
0.0
 40
0.3333333333333144
100
AcDbArc
 50
0.0
 51
180.0
  0
ARC
  5
8F
102
{ACAD_REACTORS
330
A4
102
}
330
47
100
AcDbEntity
  8
1
  6
Continuous
 62
     7
100
AcDbCircle
 10
285.4647208774675
 20
-170.1215334184494
 30
0.0
 40
0.3333333333333955
100
AcDbArc
 50
240.0183606311518
 51
60.01836063114089
  0
ARC
  5
90
102
{ACAD_REACTORS
330
A4
102
}
330
47
100
AcDbEntity
  8
1
  6
Continuous
 62
     7
100
AcDbCircle
 10
283.1313875441342
 20
-163.9303792519607
 30
0.0
 40
0.3333333333333144
100
AcDbArc
 50
0.0
 51
180.0
  0
ARC
  5
91
102
{ACAD_REACTORS
330
A5
102
}
330
47
100
AcDbEntity
  8
1
  6
Continuous
 62
     7
100
AcDbCircle
 10
287.1997546649922
 20
-163.1216621000935
 30
0.0
 40
0.2649662124753149
100
AcDbArc
 50
0.0
 51
149.999999999981
  0
ARC
  5
92
102
{ACAD_REACTORS
330
A5
102
}
330
47
100
AcDbEntity
  8
1
  6
Continuous
 62
     7
100
AcDbCircle
 10
287.1313875441343
 20
-169.5446103415263
 30
0.0
 40
0.3333333333334281
100
AcDbArc
 50
180.0
 51
0.0
  0
ARC
  5
93
102
{ACAD_REACTORS
330
A5
102
}
330
47
100
AcDbEntity
  8
1
  6
Continuous
 62
     7
100
AcDbCircle
 10
284.4647208774675
 20
-168.0052943394952
 30
0.0
 40
0.3333333333333144
100
AcDbArc
 50
180.0
 51
0.0
  0
ARC
  5
94
102
{ACAD_REACTORS
330
A5
102
}
330
47
100
AcDbEntity
  8
1
  6
Continuous
 62
     7
100
AcDbCircle
 10
284.3963537566095
 20
-163.1216621000935
 30
0.0
 40
0.2649662124752685
100
AcDbArc
 50
30.00000000001289
 51
180.0
  0
ARC
  5
95
102
{ACAD_REACTORS
330
A2
102
}
330
47
100
AcDbEntity
  8
1
  6
Continuous
 62
     7
100
AcDbCircle
 10
288.4647208774675
 20
-168.7753795722955
 30
0.0
 40
0.3333333333332007
100
AcDbArc
 50
180.0
 51
299.9816393688591
  0
ARC
  5
96
102
{ACAD_REACTORS
330
A2
102
}
330
47
100
AcDbEntity
  8
1
  6
Continuous
 62
     7
100
AcDbCircle
 10
288.4647208774675
 20
-163.9303792519607
 30
0.0
 40
0.3333333333333008
100
AcDbArc
 50
60.01836063113115
 51
180.0
  0
ARC
  5
97
330
47
100
AcDbEntity
  8
1
  6
Continuous
 62
     7
100
AcDbCircle
 10
294.1312024103608
 20
-166.3528794121281
 30
0.0
 40
0.1666666666667347
100
AcDbArc
 50
299.9816393688409
 51
60.01836063112007
  0
ARC
  5
98
330
47
100
AcDbEntity
  8
1
  6
Continuous
 62
     7
100
AcDbCircle
 10
277.464906011241
 20
-166.3528794121281
 30
0.0
 40
0.1666666666665945
100
AcDbArc
 50
119.9816393689138
 51
240.0183606311253
  0
ARC
  5
99
102
{ACAD_REACTORS
330
A4
102
}
330
47
100
AcDbEntity
  8
1
  6
Continuous
 62
     7
100
AcDbCircle
 10
283.4647208774675
 20
-168.5828582640954
 30
0.0
 40
0.6666666666666288
100
AcDbArc
 50
180.0000000000097
 51
240.018360631159
  0
ARC
  5
9A
102
{ACAD_REACTORS
330
A5
102
}
330
47
100
AcDbEntity
  8
1
  6
Continuous
 62
     7
100
AcDbCircle
 10
285.7980542108009
 20
-166.0195460787949
 30
0.0
 40
0.1666666666666797
100
AcDbArc
 50
209.9999999999447
 51
330.0000000000357
  0
MTEXT
  5
9C
330
47
100
AcDbEntity
  8
1
 62
     7
100
AcDbMText
 10
263.7980542108009
 20
-162.5922399913721
 30
0.0
 40
3.0
 41
0.0
 71
     5
 72
     1
  1
Scale
  7
CONVERTER_11
 73
     1
 44
1.32052821128451
  0
MTEXT
  5
9D
330
47
100
AcDbEntity
  8
1
 62
     7
100
AcDbMText
 10
158.6217535220579
 20
15.147120587872
 30
0.0
 40
4.0
 41
0.0
 71
     5
 72
     1
  1
Diritti riservati      All rights reserved
  7
CONVERTER_11
 73
     1
 44
1.32052821128451
  0
MTEXT
  5
9F
330
47
100
AcDbEntity
  8
1
 62
     7
100
AcDbMText
 10
130.1217535220582
 20
-161.3528794121282
 30
0.0
 40
2.5
 41
0.0
 71
     5
 72
     1
  1
dimensions in mm
  7
CONVERTER_12
 73
     1
 44
0.60024009603842
  0
MTEXT
  5
A0
330
47
100
AcDbEntity
  8
1
 62
     7
100
AcDbMText
 10
116.1217535220582
 20
-166.3528794121282
 30
0.0
 40
3.0
 41
0.0
 71
     4
 72
     1
  1
Date
  7
CONVERTER_11
 73
     1
 44
1.32052821128451
  0
MTEXT
  5
A1
330
47
100
AcDbEntity
  8
1
 62
     7
100
AcDbMText
 10
116.1217535220582
 20
-171.3528794121282
 30
0.0
 40
3.0
 41
0.0
 71
     4
 72
     1
  1
Sign.
  7
CONVERTER_11
 73
     1
 44
1.32052821128451
  0
HATCH
  5
A2
330
47
100
AcDbEntity
  8
1
  6
Continuous
 62
     7
100
AcDbHatch
 10
0.0
 20
0.0
 30
0.0
210
0.0
220
0.0
230
1.0
  2
SOLID
 70
     1
 71
     1
 91
        1
 92
        1
 93
       14
 72
     2
 10
288.4647208774675
 20
-163.9303792519607
 40
0.3333333333333008
 50
60.01836063113115
 51
180.0
 73
     1
 72
     1
 10
288.1313875441343
 20
-163.9303792519607
 11
288.1313875441343
 21
-168.7753795722955
 72
     2
 10
288.4647208774675
 20
-168.7753795722955
 40
0.3333333333332007
 50
180.0
 51
299.9816393688591
 73
     1
 72
     1
 10
288.6312950286308
 20
-169.0641081009784
 11
289.964628361964
 21
-168.2948773317478
 72
     2
 10
289.7980542108009
 20
-168.0061488030649
 40
0.3333333333333387
 50
299.9816393688313
 51
479.9816393688433
 73
     1
 72
     1
 10
289.6314800596377
 20
-167.7174202743819
 11
288.7980542108009
 21
-168.1982428794802
 72
     1
 10
288.7980542108009
 20
-168.1982428794802
 11
288.7980542108009
 21
-166.6862127454615
 72
     1
 10
288.7980542108009
 20
-166.6862127454615
 11
289.7980542108009
 21
-166.6862127454615
 72
     2
 10
289.7980542108009
 20
-166.3528794121281
 40
0.3333333333333997
 50
270.0
 51
450.0
 73
     1
 72
     1
 10
289.7980542108009
 20
-166.0195460787949
 11
288.7980542108009
 21
-166.0195460787949
 72
     1
 10
288.7980542108009
 20
-166.0195460787949
 11
288.7980542108009
 21
-164.5075159447762
 72
     1
 10
288.7980542108009
 20
-164.5075159447762
 11
289.6314800596377
 21
-164.9883385498744
 72
     2
 10
289.7980542108009
 20
-164.6996100211915
 40
0.3333333333333955
 50
240.0183606311518
 51
420.0183606311565
 73
     1
 72
     1
 10
289.964628361964
 20
-164.4108814925087
 11
288.6312950286308
 21
-163.6416507232779
 97
       14
330
8C
330
64
330
63
330
62
330
8B
330
61
330
60
330
5F
330
8A
330
5E
330
95
330
7C
330
96
330
65
 75
     0
 76
     1
 98
        1
 10
0.0
 20
0.0
  0
HATCH
  5
A3
330
47
100
AcDbEntity
  8
1
  6
Continuous
 62
     7
100
AcDbHatch
 10
0.0
 20
0.0
 30
0.0
210
0.0
220
0.0
230
1.0
  2
SOLID
 70
     1
 71
     1
 91
        1
 92
        1
 93
        5
 72
     2
 10
281.7980542108009
 20
-164.6996100211915
 40
0.3333333333333144
 50
0.0
 51
180.0
 73
     1
 72
     1
 10
281.4647208774675
 20
-164.6996100211915
 11
281.4647208774675
 21
-168.0061488030649
 72
     2
 10
281.7980542108009
 20
-168.0061488030649
 40
0.3333333333333712
 50
180.0
 51
360.0
 73
     1
 72
     1
 10
282.1313875441342
 20
-168.0061488030649
 11
282.1313875441342
 21
-167.8136274948648
 72
     1
 10
282.1313875441342
 20
-167.8136274948648
 11
282.1313875441342
 21
-164.6996100211915
 97
        5
330
8E
330
66
330
8D
330
67
330
68
 75
     0
 76
     1
 98
        1
 10
0.0
 20
0.0
  0
HATCH
  5
A4
330
47
100
AcDbEntity
  8
1
  6
Continuous
 62
     7
100
AcDbHatch
 10
0.0
 20
0.0
 30
0.0
210
0.0
220
0.0
230
1.0
  2
SOLID
 70
     1
 71
     1
 91
        1
 92
        1
 93
        7
 72
     2
 10
283.1313875441342
 20
-163.9303792519607
 40
0.3333333333333144
 50
0.0
 51
180.0
 73
     1
 72
     1
 10
282.7980542108009
 20
-163.9303792519607
 11
282.7980542108009
 21
-168.5828582640955
 72
     2
 10
283.4647208774675
 20
-168.5828582640954
 40
0.6666666666666288
 50
180.0000000000097
 51
240.018360631159
 73
     1
 72
     1
 10
283.1315725751412
 20
-169.1603153214612
 11
285.2981467263043
 21
-170.4102619471323
 72
     2
 10
285.4647208774675
 20
-170.1215334184494
 40
0.3333333333333955
 50
240.0183606311518
 51
420.0183606311409
 73
     1
 72
     1
 10
285.6312950286308
 20
-169.8328048897665
 11
283.4647208774675
 21
-168.5828582640954
 72
     1
 10
283.4647208774675
 20
-168.5828582640954
 11
283.4647208774675
 21
-163.9303792519607
 97
        7
330
90
330
6C
330
99
330
69
330
8F
330
6A
330
6B
 75
     0
 76
     1
 98
        1
 10
0.0
 20
0.0
  0
HATCH
  5
A5
330
47
100
AcDbEntity
  8
1
  6
Continuous
 62
     7
100
AcDbHatch
 10
0.0
 20
0.0
 30
0.0
210
0.0
220
0.0
230
1.0
  2
SOLID
 70
     1
 71
     1
 91
        1
 92
        1
 93
       16
 72
     2
 10
287.1997546649922
 20
-163.1216621000935
 40
0.2649662124753149
 50
210.000000000019
 51
360.0
 73
     0
 72
     1
 10
287.4647208774675
 20
-163.1216621000935
 11
287.4647208774675
 21
-169.5446103415263
 72
     2
 10
287.1313875441343
 20
-169.5446103415263
 40
0.3333333333334281
 50
0.0
 51
180.0
 73
     0
 72
     1
 10
286.7980542108009
 20
-169.5446103415263
 11
286.7980542108009
 21
-166.3528794121281
 72
     1
 10
286.7980542108009
 20
-166.3528794121281
 11
286.7980542108009
 21
-164.6208286045593
 72
     1
 10
286.7980542108009
 20
-164.6208286045593
 11
285.9423917780983
 21
-166.1028794121281
 72
     2
 10
285.7980542108009
 20
-166.0195460787949
 40
0.1666666666666797
 50
29.99999999996429
 51
150.0000000000553
 73
     0
 72
     1
 10
285.6537166435034
 20
-166.1028794121281
 11
284.7980542108009
 21
-164.6208286045593
 72
     1
 10
284.7980542108009
 20
-164.6208286045593
 11
284.7980542108009
 21
-166.3528794121281
 72
     1
 10
284.7980542108009
 20
-166.3528794121281
 11
284.7980542108009
 21
-168.0052943394952
 72
     2
 10
284.4647208774675
 20
-168.0052943394952
 40
0.3333333333333144
 50
0.0
 51
180.0
 73
     0
 72
     1
 10
284.1313875441342
 20
-168.0052943394952
 11
284.1313875441342
 21
-166.3528794121281
 72
     1
 10
284.1313875441342
 20
-166.3528794121281
 11
284.1313875441342
 21
-163.1216621000935
 72
     2
 10
284.3963537566095
 20
-163.1216621000935
 40
0.2649662124752685
 50
180.0
 51
329.9999999999871
 73
     0
 72
     1
 10
284.6258212277576
 20
-162.9891789938558
 11
285.7980542108009
 21
-165.0195460787949
 72
     1
 10
285.7980542108009
 20
-165.0195460787949
 11
286.9702871938442
 21
-162.9891789938558
 97
       16
330
72
330
94
330
73
330
71
330
93
330
70
330
78
330
79
330
9A
330
7A
330
7B
330
6F
330
92
330
6E
330
91
330
6D
 75
     0
 76
     1
 98
        1
 10
0.0
 20
0.0
  0
ENDBLK
  5
49
330
47
100
AcDbEntity
  8
0
100
AcDbBlockEnd
  0
BLOCK
  5
4C
330
4A
100
AcDbEntity
  8
0
100
AcDbBlockBegin
  2
A4_oriz
 70
     0
 10
1520.608767610291
 20
-894.2643970606406
 30
0.0
  3
A4_oriz
  1

  0
INSERT
  5
4B
330
4A
100
AcDbEntity
  8
1
100
AcDbBlockReference
  2
_formato_A4
 10
1520.608767610291
 20
-894.2643970606402
 30
0.0
 41
5.0
 42
5.0
 43
5.0
  0
ENDBLK
  5
4D
330
4A
100
AcDbEntity
  8
0
100
AcDbBlockEnd
  0
BLOCK
  5
27C
330
274
100
AcDbEntity
  8
0
100
AcDbBlockBegin
  2
*D3
 70
     1
 10
0.0
 20
0.0
 30
0.0
  3
*D3
  1

  0
LINE
  5
275
330
274
100
AcDbEntity
  8
1
  6
Continuous
 62
     2
100
AcDbLine
 10
722.3396657756841
 20
-164.540265424196
 30
0.0
 11
722.3396657756841
 21
-348.5402654242109
 31
0.0
  0
LINE
  5
276
330
274
100
AcDbEntity
  8
1
  6
Continuous
 62
     2
100
AcDbLine
 10
646.3965254866938
 20
-164.540265424196
 30
0.0
 11
727.3396657756841
 21
-164.540265424196
 31
0.0
  0
LINE
  5
277
330
274
100
AcDbEntity
  8
1
  6
Continuous
 62
     2
100
AcDbLine
 10
646.3965254866937
 20
-348.5402654242109
 30
0.0
 11
727.3396657756841
 21
-348.5402654242109
 31
0.0
  0
SOLID
  5
278
330
274
100
AcDbEntity
  8
1
 62
     2
100
AcDbTrace
 10
724.314453239495
 20
-179.540265424196
 30
0.0
 11
720.3648783118732
 21
-179.540265424196
 31
0.0
 12
722.3396657756841
 22
-164.540265424196
 32
0.0
 13
722.3396657756841
 23
-164.540265424196
 33
0.0
  0
SOLID
  5
279
330
274
100
AcDbEntity
  8
1
 62
     2
100
AcDbTrace
 10
720.3648783118732
 20
-333.5402654242109
 30
0.0
 11
724.314453239495
 21
-333.5402654242109
 31
0.0
 12
722.3396657756841
 22
-348.5402654242109
 32
0.0
 13
722.3396657756841
 23
-348.5402654242109
 33
0.0
  0
MTEXT
  5
27B
330
274
100
AcDbEntity
  8
1
 62
     4
100
AcDbMText
 10
712.3396657756841
 20
-273.0402654242034
 30
0.0
 40
15.0
 41
0.0
 71
     7
 72
     1
  1
184
  7
CONVERTER_13
 11
0.0
 21
1.0
 31
0.0
 73
     1
 44
0.60024009603842
  0
ENDBLK
  5
27D
330
274
100
AcDbEntity
  8
0
100
AcDbBlockEnd
  0
BLOCK
  5
287
330
280
100
AcDbEntity
  8
0
100
AcDbBlockBegin
  2
*D4
 70
     1
 10
0.0
 20
0.0
 30
0.0
  3
*D4
  1

  0
LINE
  5
281
330
280
100
AcDbEntity
  8
1
  6
Continuous
 62
     2
100
AcDbLine
 10
420.8941267615224
 20
-415.8448721767952
 30
0.0
 11
650.8941267615226
 21
-415.8448721767952
 31
0.0
  0
LINE
  5
282
330
280
100
AcDbEntity
  8
1
  6
Continuous
 62
     2
100
AcDbLine
 10
420.8941267615224
 20
-344.0426641493819
 30
0.0
 11
420.8941267615224
 21
-420.8448721767952
 31
0.0
  0
LINE
  5
283
330
280
100
AcDbEntity
  8
1
  6
Continuous
 62
     2
100
AcDbLine
 10
650.8941267615226
 20
-344.0426641493819
 30
0.0
 11
650.8941267615226
 21
-420.8448721767952
 31
0.0
  0
SOLID
  5
284
330
280
100
AcDbEntity
  8
1
 62
     2
100
AcDbTrace
 10
435.8941267615224
 20
-413.8700847129843
 30
0.0
 11
435.8941267615224
 21
-417.8196596406061
 31
0.0
 12
420.8941267615224
 22
-415.8448721767952
 32
0.0
 13
420.8941267615224
 23
-415.8448721767952
 33
0.0
  0
SOLID
  5
285
330
280
100
AcDbEntity
  8
1
 62
     2
100
AcDbTrace
 10
635.8941267615226
 20
-417.8196596406061
 30
0.0
 11
635.8941267615226
 21
-413.8700847129843
 31
0.0
 12
650.8941267615226
 22
-415.8448721767952
 32
0.0
 13
650.8941267615226
 23
-415.8448721767952
 33
0.0
  0
MTEXT
  5
286
330
280
100
AcDbEntity
  8
1
 62
     4
100
AcDbMText
 10
517.8941267615226
 20
-405.8448721767952
 30
0.0
 40
15.0
 41
0.0
 71
     7
 72
     1
  1
230
  7
CONVERTER_13
 11
0.9999999999970619
 21
2.424068405545306E-6
 31
0.0
 73
     1
 44
0.60024009603842
  0
ENDBLK
  5
288
330
280
100
AcDbEntity
  8
0
100
AcDbBlockEnd
  0
BLOCK
  5
293
330
28B
100
AcDbEntity
  8
0
100
AcDbBlockBegin
  2
*D5
 70
     1
 10
0.0
 20
0.0
 30
0.0
  3
*D5
  1

  0
LINE
  5
28C
330
28B
100
AcDbEntity
  8
1
  6
Continuous
 62
     2
100
AcDbLine
 10
1050.209719957995
 20
-416.5948721767952
 30
0.0
 11
1106.384719958075
 21
-416.5948721767952
 31
0.0
  0
LINE
  5
28D
330
28B
100
AcDbEntity
  8
1
  6
Continuous
 62
     2
100
AcDbLine
 10
1106.384719958075
 20
-416.5948721767952
 30
0.0
 11
1152.884719957915
 21
-416.5948721767952
 31
0.0
  0
LINE
  5
28E
330
28B
100
AcDbEntity
  8
1
  6
Continuous
 62
     2
100
AcDbLine
 10
1106.384719958075
 20
-351.0402654242109
 30
0.0
 11
1106.384719958075
 21
-421.5948721767952
 31
0.0
  0
LINE
  5
28F
330
28B
100
AcDbEntity
  8
1
  6
Continuous
 62
     2
100
AcDbLine
 10
1152.884719957915
 20
-341.3000275886798
 30
0.0
 11
1152.884719957915
 21
-421.5948721767952
 31
0.0
  0
SOLID
  5
290
330
28B
100
AcDbEntity
  8
1
 62
     2
100
AcDbTrace
 10
1121.384719958075
 20
-414.6200847129843
 30
0.0
 11
1121.384719958075
 21
-418.5696596406061
 31
0.0
 12
1106.384719958075
 22
-416.5948721767952
 32
0.0
 13
1106.384719958075
 23
-416.5948721767952
 33
0.0
  0
SOLID
  5
291
330
28B
100
AcDbEntity
  8
1
 62
     2
100
AcDbTrace
 10
1137.884719957915
 20
-418.5696596406061
 30
0.0
 11
1137.884719957915
 21
-414.6200847129843
 31
0.0
 12
1152.884719957915
 22
-416.5948721767952
 32
0.0
 13
1152.884719957915
 23
-416.5948721767952
 33
0.0
  0
MTEXT
  5
292
330
28B
100
AcDbEntity
  8
1
 62
     4
100
AcDbMText
 10
1050.209719957995
 20
-405.0948721767952
 30
0.0
 40
15.0
 41
0.0
 71
     7
 72
     1
  1
46,5
  7
CONVERTER_13
 11
0.9999999999970619
 21
2.424068405545306E-6
 31
0.0
 73
     1
 44
0.60024009603842
  0
ENDBLK
  5
294
330
28B
100
AcDbEntity
  8
0
100
AcDbBlockEnd
  0
ENDSEC
  0
SECTION
  2
ENTITIES
  0
INSERT
  5
4E
330
1F
100
AcDbEntity
  8
0
100
AcDbBlockReference
  2
A4_oriz
 10
1520.608767610291
 20
-894.2643970606405
 30
0.0
 41
1.0
 42
1.0
 43
1.0
  0
LINE
  5
A6
102
{ACAD_REACTORS
330
297
102
}
330
1F
100
AcDbEntity
  8
0
  6
Continuous
 62
     2
100
AcDbLine
 10
636.7203519557381
 20
-214.4809056932634
 30
0.0
 11
628.3538889259457
 21
-219.3077112873746
 31
0.0
  0
LINE
  5
A7
102
{ACAD_REACTORS
330
297
102
}
330
1F
100
AcDbEntity
  8
0
  6
Continuous
 62
     2
100
AcDbLine
 10
636.7703242010873
 20
-214.5675242518676
 30
0.0
 11
628.3538889259457
 21
-219.4231599875268
 31
0.0
  0
LINE
  5
A8
102
{ACAD_REACTORS
330
297
102
}
330
1F
100
AcDbEntity
  8
0
  6
Continuous
 62
     2
100
AcDbLine
 10
628.3538889259457
 20
-209.5386086876795
 30
0.0
 11
636.7203519557386
 21
-214.36541428179
 31
0.0
  0
LINE
  5
A9
102
{ACAD_REACTORS
330
297
102
}
330
1F
100
AcDbEntity
  8
0
  6
Continuous
 62
     2
100
AcDbLine
 10
628.3538889259457
 20
-209.4231599875266
 30
0.0
 11
636.7703242010873
 21
-214.2787957231856
 31
0.0
  0
LINE
  5
AA
102
{ACAD_REACTORS
330
297
102
}
330
1F
100
AcDbEntity
  8
0
  6
Continuous
 62
     2
100
AcDbLine
 10
628.3538889259457
 20
-219.3077112873746
 30
0.0
 11
619.9874258961534
 21
-214.4809056932634
 31
0.0
  0
LINE
  5
AB
102
{ACAD_REACTORS
330
297
102
}
330
1F
100
AcDbEntity
  8
0
  6
Continuous
 62
     2
100
AcDbLine
 10
628.3538889259457
 20
-219.4231599875268
 30
0.0
 11
619.9374536508042
 21
-214.5675242518676
 31
0.0
  0
LINE
  5
AC
102
{ACAD_REACTORS
330
297
102
}
330
1F
100
AcDbEntity
  8
0
  6
Continuous
 62
     2
100
AcDbLine
 10
619.9874258961534
 20
-214.3654142817907
 30
0.0
 11
628.3538889259457
 21
-209.5386086876795
 31
0.0
  0
LINE
  5
AD
102
{ACAD_REACTORS
330
297
102
}
330
1F
100
AcDbEntity
  8
0
  6
Continuous
 62
     2
100
AcDbLine
 10
619.9374536508042
 20
-214.2787957231856
 30
0.0
 11
628.3538889259457
 21
-209.4231599875266
 31
0.0
  0
LINE
  5
AE
330
1F
100
AcDbEntity
  8
0
  6
Continuous
 62
     7
100
AcDbLine
 10
476.4410151817601
 20
-324.4000253347255
 30
0.0
 11
476.4410151817601
 21
-332.6805055136573
 31
0.0
  0
LINE
  5
AF
330
1F
100
AcDbEntity
  8
0
  6
Continuous
 62
     7
100
AcDbLine
 10
459.347238341313
 20
-332.6805055136584
 30
0.0
 11
459.347238341313
 21
-324.4000253347255
 31
0.0
  0
LINE
  5
B0
330
1F
100
AcDbEntity
  8
0
  6
Continuous
 62
     7
100
AcDbLine
 10
595.3472383413134
 20
-332.6805055136584
 30
0.0
 11
595.3472383413134
 21
-324.4000253347243
 31
0.0
  0
LINE
  5
B1
330
1F
100
AcDbEntity
  8
0
  6
Continuous
 62
     7
100
AcDbLine
 10
612.4410151817603
 20
-332.6805055136573
 30
0.0
 11
612.4410151817603
 21
-324.4000253347243
 31
0.0
  0
LINE
  5
B2
330
1F
100
AcDbEntity
  8
0
  6
Continuous
 62
     7
100
AcDbLine
 10
1145.303407607858
 20
-346.7890638667168
 30
0.0
 11
1130.884719958038
 21
-347.5447152666256
 31
0.0
  0
LINE
  5
B3
330
1F
100
AcDbEntity
  8
0
  6
Continuous
 62
     7
100
AcDbLine
 10
1130.884719958038
 20
-347.5447152666256
 30
0.0
 11
1130.884719957913
 21
-340.5543085233437
 31
0.0
  0
LINE
  5
B4
330
1F
100
AcDbEntity
  8
0
  6
Continuous
 62
     7
100
AcDbLine
 10
1152.884719957918
 20
-191.9231589405514
 30
0.0
 11
1152.884719957986
 21
-267.4231372016925
 31
0.0
  0
LINE
  5
B5
330
1F
100
AcDbEntity
  8
0
  6
Continuous
 62
     7
100
AcDbLine
 10
1152.884719957918
 20
-191.9231589405514
 30
0.0
 11
1152.884719957918
 21
-185.5402654242304
 31
0.0
  0
LINE
  5
B6
330
1F
100
AcDbEntity
  8
0
  6
Continuous
 62
     7
100
AcDbLine
 10
1145.105483085762
 20
-193.9995278699467
 30
0.0
 11
1130.884719957913
 21
-194.3719116578665
 31
0.0
  0
LINE
  5
B7
330
1F
100
AcDbEntity
  8
0
  6
Continuous
 62
     7
100
AcDbLine
 10
1130.884719957913
 20
-194.3719116578665
 30
0.0
 11
1130.884719957978
 21
-337.3617510917288
 31
0.0
  0
LINE
  5
B8
330
1F
100
AcDbEntity
  8
0
  6
Continuous
 62
     7
100
AcDbLine
 10
1152.88471995798
 20
-267.4231372016927
 30
0.0
 11
1152.884719957915
 21
-338.8000275886798
 31
0.0
  0
LINE
  5
B9
330
1F
100
AcDbEntity
  8
0
  6
Continuous
 62
     2
100
AcDbLine
 10
1145.303407607856
 20
-194.4938008176715
 30
0.0
 11
1145.303407607856
 21
-339.7986571234337
 31
0.0
  0
LINE
  5
BA
330
1F
100
AcDbEntity
  8
0
  6
Continuous
 62
     7
100
AcDbLine
 10
1130.884719957913
 20
-340.5543085233437
 30
0.0
 11
1130.884719957978
 21
-337.3617510917288
 31
0.0
  0
LINE
  5
BB
330
1F
100
AcDbEntity
  8
0
  6
Continuous
 62
     7
100
AcDbLine
 10
648.954497823991
 20
-194.1116619303268
 30
0.0
 11
648.9551053287698
 21
-194.1121679357827
 31
0.0
  0
LINE
  5
BC
330
1F
100
AcDbEntity
  8
0
  6
Continuous
 62
     7
100
AcDbLine
 10
624.2941267615088
 20
-190.9231589405124
 30
0.0
 11
643.8464640430495
 21
-190.9231589245137
 31
0.0
  0
LINE
  5
BD
330
1F
100
AcDbEntity
  8
0
  6
Continuous
 62
     7
100
AcDbLine
 10
649.6062663548257
 20
-194.4227809312754
 30
0.0
 11
648.9103579903817
 21
-194.0750653421037
 31
0.0
  0
LINE
  5
BE
330
1F
100
AcDbEntity
  8
0
  6
Continuous
 62
     2
100
AcDbLine
 10
624.2941267615086
 20
-191.9231589405124
 30
0.0
 11
641.1538889259457
 21
-191.9231589405124
 31
0.0
  0
LINE
  5
BF
330
1F
100
AcDbEntity
  8
0
  6
Continuous
 62
     2
100
AcDbLine
 10
641.1538889259457
 20
-194.4231589405124
 30
0.0
 11
641.1538889259457
 21
-191.9231589405124
 31
0.0
  0
LINE
  5
C0
330
1F
100
AcDbEntity
  8
0
  6
Continuous
 62
     2
100
AcDbLine
 10
429.6357350623625
 20
-346.7890638666773
 30
0.0
 11
428.8800836624562
 21
-347.5447152665864
 31
0.0
  0
LINE
  5
C1
330
1F
100
AcDbEntity
  8
0
  6
Continuous
 62
     7
100
AcDbLine
 10
649.8985766038966
 20
-194.8727682866956
 30
0.0
 11
649.898576603897
 21
-340.5543085233045
 31
0.0
  0
LINE
  5
C2
330
1F
100
AcDbEntity
  8
0
  6
Continuous
 62
     2
100
AcDbLine
 10
630.9066267614469
 20
-247.4231372010213
 30
0.0
 11
630.9691267614469
 21
-247.7356372010213
 31
0.0
  0
LINE
  5
C3
330
1F
100
AcDbEntity
  8
0
  6
Continuous
 62
     2
100
AcDbLine
 10
631.0316267614469
 20
-249.5481372010213
 30
0.0
 11
631.0316267614469
 21
-250.0481372010213
 31
0.0
  0
LINE
  5
C4
330
1F
100
AcDbEntity
  8
0
  6
Continuous
 62
     2
100
AcDbLine
 10
630.9691267614469
 20
-247.7356372010213
 30
0.0
 11
630.9691267614469
 21
-247.8606372010215
 31
0.0
  0
LINE
  5
C5
330
1F
100
AcDbEntity
  8
0
  6
Continuous
 62
     2
100
AcDbLine
 10
630.9066267614469
 20
-250.4231372010211
 30
0.0
 11
631.0316267614469
 21
-250.0481372010213
 31
0.0
  0
LINE
  5
C6
330
1F
100
AcDbEntity
  8
0
  6
Continuous
 62
     2
100
AcDbLine
 10
630.9066267614469
 20
-249.1731372010211
 30
0.0
 11
631.0316267614469
 21
-249.5481372010213
 31
0.0
  0
LINE
  5
C7
330
1F
100
AcDbEntity
  8
0
  6
Continuous
 62
     2
100
AcDbLine
 10
630.7601389259457
 20
-225.4231599875875
 30
0.0
 11
629.1976389259457
 21
-221.4231599875875
 31
0.0
  0
LINE
  5
C8
330
1F
100
AcDbEntity
  8
0
  6
Continuous
 62
     2
100
AcDbLine
 10
630.7816267614469
 20
-247.1731372010215
 30
0.0
 11
630.9066267614469
 21
-247.4231372010213
 31
0.0
  0
LINE
  5
C9
330
1F
100
AcDbEntity
  8
0
  6
Continuous
 62
     2
100
AcDbLine
 10
630.7816267614469
 20
-248.9231372010217
 30
0.0
 11
630.5941267614464
 21
-248.6731372010211
 31
0.0
  0
LINE
  5
CA
330
1F
100
AcDbEntity
  8
0
  6
Continuous
 62
     2
100
AcDbLine
 10
630.7816267614469
 20
-248.9231372010217
 30
0.0
 11
630.9066267614469
 21
-249.1731372010211
 31
0.0
  0
LINE
  5
CB
330
1F
100
AcDbEntity
  8
0
  6
Continuous
 62
     2
100
AcDbLine
 10
630.9066267614469
 20
-250.4231372010211
 30
0.0
 11
630.7816267614469
 21
-250.6731372010213
 31
0.0
  0
LINE
  5
CC
330
1F
100
AcDbEntity
  8
0
  6
Continuous
 62
     2
100
AcDbLine
 10
630.9691267614469
 20
-247.8606372010215
 30
0.0
 11
630.3441267614469
 21
-247.8606372010213
 31
0.0
  0
LINE
  5
CD
330
1F
100
AcDbEntity
  8
0
  6
Continuous
 62
     2
100
AcDbLine
 10
630.2816267614469
 20
-250.2981372010213
 30
0.0
 11
630.4066267614469
 21
-249.9856372010215
 31
0.0
  0
LINE
  5
CE
330
1F
100
AcDbEntity
  8
0
  6
Continuous
 62
     2
100
AcDbLine
 10
630.4066267614469
 20
-249.6106372010213
 30
0.0
 11
630.4066267614469
 21
-249.9856372010215
 31
0.0
  0
LINE
  5
CF
330
1F
100
AcDbEntity
  8
0
  6
Continuous
 62
     2
100
AcDbLine
 10
630.4066267614469
 20
-249.6106372010213
 30
0.0
 11
630.2816267614469
 21
-249.2981372010215
 31
0.0
  0
LINE
  5
D0
330
1F
100
AcDbEntity
  8
0
  6
Continuous
 62
     2
100
AcDbLine
 10
630.5941267614469
 20
-246.9231372010217
 30
0.0
 11
630.4066267614473
 21
-246.735637201022
 31
0.0
  0
LINE
  5
D1
330
1F
100
AcDbEntity
  8
0
  6
Continuous
 62
     2
100
AcDbLine
 10
630.5941267614469
 20
-250.9231372010213
 30
0.0
 11
630.4066267614469
 21
-251.1106372010213
 31
0.0
  0
LINE
  5
D2
330
1F
100
AcDbEntity
  8
0
  6
Continuous
 62
     2
100
AcDbLine
 10
630.4066267614469
 20
-251.1106372010213
 30
0.0
 11
630.2191267614469
 21
-251.2356372010213
 31
0.0
  0
LINE
  5
D3
330
1F
100
AcDbEntity
  8
0
  6
Continuous
 62
     2
100
AcDbLine
 10
630.4066267614469
 20
-248.4856372010215
 30
0.0
 11
630.5941267614464
 21
-248.6731372010211
 31
0.0
  0
LINE
  5
D4
330
1F
100
AcDbEntity
  8
0
  6
Continuous
 62
     2
100
AcDbLine
 10
630.2191267614469
 20
-248.3606372010215
 30
0.0
 11
630.4066267614469
 21
-248.4856372010215
 31
0.0
  0
LINE
  5
D5
330
1F
100
AcDbEntity
  8
0
  6
Continuous
 62
     2
100
AcDbLine
 10
628.9476389259457
 20
-222.5481599875875
 30
0.0
 11
630.4476389259457
 21
-226.4231599875875
 31
0.0
  0
LINE
  5
D6
330
1F
100
AcDbEntity
  8
0
  6
Continuous
 62
     2
100
AcDbLine
 10
630.5941267614469
 20
-246.9231372010217
 30
0.0
 11
630.7816267614469
 21
-247.1731372010215
 31
0.0
  0
LINE
  5
D7
330
1F
100
AcDbEntity
  8
0
  6
Continuous
 62
     2
100
AcDbLine
 10
630.7816267614469
 20
-250.6731372010213
 30
0.0
 11
630.5941267614469
 21
-250.9231372010213
 31
0.0
  0
LINE
  5
D8
330
1F
100
AcDbEntity
  8
0
  6
Continuous
 62
     2
100
AcDbLine
 10
630.4476389259457
 20
-226.4231599875875
 30
0.0
 11
631.0726389259457
 21
-226.4231599875875
 31
0.0
  0
LINE
  5
D9
330
1F
100
AcDbEntity
  8
0
  6
Continuous
 62
     2
100
AcDbLine
 10
630.2191267614469
 20
-246.6106372010217
 30
0.0
 11
630.4066267614473
 21
-246.735637201022
 31
0.0
  0
LINE
  5
DA
330
1F
100
AcDbEntity
  8
0
  6
Continuous
 62
     2
100
AcDbLine
 10
630.1929076117704
 20
-256.8731372010214
 30
0.0
 11
631.9441267614473
 21
-256.8731372010214
 31
0.0
  0
LINE
  5
DB
330
1F
100
AcDbEntity
  8
0
  6
Continuous
 62
     2
100
AcDbLine
 10
630.1929076117706
 20
-255.9731372010214
 30
0.0
 11
631.9441267614468
 21
-255.9731372010214
 31
0.0
  0
LINE
  5
DC
330
1F
100
AcDbEntity
  8
0
  6
Continuous
 62
     2
100
AcDbLine
 10
624.687222259279
 20
-212.7698905965894
 30
0.0
 11
624.6872222592792
 21
-216.0764293784634
 31
0.0
  0
LINE
  5
DD
330
1F
100
AcDbEntity
  8
0
  6
Continuous
 62
     2
100
AcDbLine
 10
625.0726389259457
 20
-222.0481599875875
 30
0.0
 11
625.0726389259457
 21
-226.4231599875875
 31
0.0
  0
LINE
  5
DE
330
1F
100
AcDbEntity
  8
0
  6
Continuous
 62
     2
100
AcDbLine
 10
630.687222259279
 20
-216.8456601476944
 30
0.0
 11
630.687222259279
 21
-212.0006598273596
 31
0.0
  0
LINE
  5
DF
330
1F
100
AcDbEntity
  8
0
  6
Continuous
 62
     2
100
AcDbLine
 10
625.3538889259457
 20
-216.6531388394935
 30
0.0
 11
625.3538889259457
 21
-212.0006598273596
 31
0.0
  0
LINE
  5
E0
330
1F
100
AcDbEntity
  8
0
  6
Continuous
 62
     2
100
AcDbLine
 10
625.7816267614469
 20
-247.2356372010215
 30
0.0
 11
625.4691267614469
 21
-247.1106372010215
 31
0.0
  0
LINE
  5
E1
330
1F
100
AcDbEntity
  8
0
  6
Continuous
 62
     2
100
AcDbLine
 10
625.1538889259457
 20
-278.6231372010214
 30
0.0
 11
625.1538889259457
 21
-336.1107897868914
 31
0.0
  0
LINE
  5
E2
330
1F
100
AcDbEntity
  8
0
  6
Continuous
 62
     2
100
AcDbLine
 10
625.2816267614469
 20
-249.4231372010215
 30
0.0
 11
625.7816267614469
 21
-249.3606372010215
 31
0.0
  0
LINE
  5
E3
330
1F
100
AcDbEntity
  8
0
  6
Continuous
 62
     2
100
AcDbLine
 10
625.7816267614469
 20
-246.4856372010217
 30
0.0
 11
625.2816267614469
 21
-246.4231372010215
 31
0.0
  0
LINE
  5
E4
330
1F
100
AcDbEntity
  8
0
  6
Continuous
 62
     2
100
AcDbLine
 10
630.3538889259457
 20
-336.1107897868914
 30
0.0
 11
630.3538889259457
 21
-278.6231372010214
 31
0.0
  0
LINE
  5
E5
330
1F
100
AcDbEntity
  8
0
  6
Continuous
 62
     2
100
AcDbLine
 10
629.9066267614469
 20
-250.6731372010213
 30
0.0
 11
630.1566267614469
 21
-250.4856372010213
 31
0.0
  0
LINE
  5
E6
330
1F
100
AcDbEntity
  8
0
  6
Continuous
 62
     2
100
AcDbLine
 10
630.1566267614469
 20
-250.4856372010213
 30
0.0
 11
630.2816267614469
 21
-250.2981372010213
 31
0.0
  0
LINE
  5
E7
330
1F
100
AcDbEntity
  8
0
  6
Continuous
 62
     2
100
AcDbLine
 10
630.2816267614469
 20
-249.2981372010215
 30
0.0
 11
630.1566267614469
 21
-249.1106372010215
 31
0.0
  0
LINE
  5
E8
330
1F
100
AcDbEntity
  8
0
  6
Continuous
 62
     2
100
AcDbLine
 10
630.1566267614469
 20
-249.1106372010215
 30
0.0
 11
629.9066267614469
 21
-248.9231372010215
 31
0.0
  0
LINE
  5
E9
330
1F
100
AcDbEntity
  8
0
  6
Continuous
 62
     2
100
AcDbLine
 10
629.9066267614469
 20
-251.3606372010215
 30
0.0
 11
630.2191267614469
 21
-251.2356372010213
 31
0.0
  0
LINE
  5
EA
330
1F
100
AcDbEntity
  8
0
  6
Continuous
 62
     2
100
AcDbLine
 10
629.9066267614469
 20
-248.2356372010215
 30
0.0
 11
630.2191267614469
 21
-248.3606372010215
 31
0.0
  0
LINE
  5
EB
330
1F
100
AcDbEntity
  8
0
  6
Continuous
 62
     2
100
AcDbLine
 10
630.1566267614469
 20
-247.3606372010217
 30
0.0
 11
629.9066267614469
 21
-247.1731372010215
 31
0.0
  0
LINE
  5
EC
330
1F
100
AcDbEntity
  8
0
  6
Continuous
 62
     2
100
AcDbLine
 10
630.2816267614469
 20
-247.5481372010215
 30
0.0
 11
630.1566267614469
 21
-247.3606372010217
 31
0.0
  0
LINE
  5
ED
330
1F
100
AcDbEntity
  8
0
  6
Continuous
 62
     2
100
AcDbLine
 10
629.9066267614469
 20
-246.4856372010215
 30
0.0
 11
630.2191267614469
 21
-246.6106372010217
 31
0.0
  0
LINE
  5
EE
330
1F
100
AcDbEntity
  8
0
  6
Continuous
 62
     2
100
AcDbLine
 10
629.2191267614469
 20
-246.4231372010215
 30
0.0
 11
629.6566267614469
 21
-246.4231372010215
 31
0.0
  0
LINE
  5
EF
330
1F
100
AcDbEntity
  8
0
  6
Continuous
 62
     2
100
AcDbLine
 10
630.3441267614469
 20
-247.8606372010213
 30
0.0
 11
630.2816267614469
 21
-247.5481372010215
 31
0.0
  0
LINE
  5
F0
330
1F
100
AcDbEntity
  8
0
  6
Continuous
 62
     2
100
AcDbLine
 10
629.9066267614469
 20
-250.6731372010213
 30
0.0
 11
629.5941267614469
 21
-250.7981372010215
 31
0.0
  0
LINE
  5
F1
330
1F
100
AcDbEntity
  8
0
  6
Continuous
 62
     2
100
AcDbLine
 10
629.5941267614473
 20
-248.7981372010215
 30
0.0
 11
629.9066267614469
 21
-248.9231372010215
 31
0.0
  0
LINE
  5
F2
330
1F
100
AcDbEntity
  8
0
  6
Continuous
 62
     2
100
AcDbLine
 10
629.9066267614469
 20
-247.1731372010215
 30
0.0
 11
629.6566267614469
 21
-247.0481372010215
 31
0.0
  0
LINE
  5
F3
330
1F
100
AcDbEntity
  8
0
  6
Continuous
 62
     2
100
AcDbLine
 10
629.6566267614469
 20
-247.0481372010215
 30
0.0
 11
629.2191267614469
 21
-247.0481372010215
 31
0.0
  0
LINE
  5
F4
330
1F
100
AcDbEntity
  8
0
  6
Continuous
 62
     2
100
AcDbLine
 10
628.9691267614469
 20
-250.6731372010215
 30
0.0
 11
629.2816267614469
 21
-250.7981372010215
 31
0.0
  0
LINE
  5
F5
330
1F
100
AcDbEntity
  8
0
  6
Continuous
 62
     2
100
AcDbLine
 10
629.3538889259457
 20
-212.6911091799575
 30
0.0
 11
629.3538889259457
 21
-217.6148909169244
 31
0.0
  0
LINE
  5
F6
330
1F
100
AcDbEntity
  8
0
  6
Continuous
 62
     2
100
AcDbLine
 10
629.2191267614469
 20
-247.0481372010215
 30
0.0
 11
628.9691267614473
 21
-247.1731372010211
 31
0.0
  0
LINE
  5
F7
330
1F
100
AcDbEntity
  8
0
  6
Continuous
 62
     2
100
AcDbLine
 10
629.2816267614469
 20
-251.4231372010215
 30
0.0
 11
628.9691267614469
 21
-251.3606372010215
 31
0.0
  0
LINE
  5
F8
330
1F
100
AcDbEntity
  8
0
  6
Continuous
 62
     2
100
AcDbLine
 10
628.9691267614469
 20
-248.2356372010215
 30
0.0
 11
629.2816267614469
 21
-248.1731372010215
 31
0.0
  0
LINE
  5
F9
330
1F
100
AcDbEntity
  8
0
  6
Continuous
 62
     2
100
AcDbLine
 10
629.2816267614469
 20
-248.7981372010215
 30
0.0
 11
628.9691267614469
 21
-248.9231372010215
 31
0.0
  0
LINE
  5
FA
330
1F
100
AcDbEntity
  8
0
  6
Continuous
 62
     2
100
AcDbLine
 10
628.9691267614469
 20
-248.9231372010215
 30
0.0
 11
628.7191267614469
 21
-249.1106372010215
 31
0.0
  0
LINE
  5
FB
330
1F
100
AcDbEntity
  8
0
  6
Continuous
 62
     2
100
AcDbLine
 10
628.7191267614469
 20
-249.1106372010215
 30
0.0
 11
628.5941267614469
 21
-249.2981372010213
 31
0.0
  0
LINE
  5
FC
330
1F
100
AcDbEntity
  8
0
  6
Continuous
 62
     2
100
AcDbLine
 10
628.5941267614469
 20
-250.2981372010211
 30
0.0
 11
628.7191267614469
 21
-250.4856372010217
 31
0.0
  0
LINE
  5
FD
330
1F
100
AcDbEntity
  8
0
  6
Continuous
 62
     2
100
AcDbLine
 10
628.7191267614469
 20
-250.4856372010217
 30
0.0
 11
628.9691267614469
 21
-250.6731372010215
 31
0.0
  0
LINE
  5
FE
330
1F
100
AcDbEntity
  8
0
  6
Continuous
 62
     2
100
AcDbLine
 10
628.9691267614473
 20
-247.1731372010211
 30
0.0
 11
628.7191267614469
 21
-247.3606372010215
 31
0.0
  0
LINE
  5
FF
330
1F
100
AcDbEntity
  8
0
  6
Continuous
 62
     2
100
AcDbLine
 10
628.5941267614469
 20
-247.5481372010211
 30
0.0
 11
628.7191267614469
 21
-247.3606372010215
 31
0.0
  0
LINE
  5
100
330
1F
100
AcDbEntity
  8
0
  6
Continuous
 62
     2
100
AcDbLine
 10
628.5941267614469
 20
-249.2981372010213
 30
0.0
 11
628.4691267614469
 21
-249.6106372010213
 31
0.0
  0
LINE
  5
101
330
1F
100
AcDbEntity
  8
0
  6
Continuous
 62
     2
100
AcDbLine
 10
628.4691267614469
 20
-249.9856372010213
 30
0.0
 11
628.5941267614469
 21
-250.2981372010211
 31
0.0
  0
LINE
  5
102
330
1F
100
AcDbEntity
  8
0
  6
Continuous
 62
     2
100
AcDbLine
 10
628.5941267614469
 20
-247.5481372010211
 30
0.0
 11
628.4691267614469
 21
-247.8606372010213
 31
0.0
  0
LINE
  5
103
330
1F
100
AcDbEntity
  8
0
  6
Continuous
 62
     2
100
AcDbLine
 10
628.2816267614469
 20
-250.9231372010217
 30
0.0
 11
628.0941267614469
 21
-250.6731372010215
 31
0.0
  0
LINE
  5
104
330
1F
100
AcDbEntity
  8
0
  6
Continuous
 62
     2
100
AcDbLine
 10
628.0941267614469
 20
-247.1731372010213
 30
0.0
 11
628.2816267614473
 21
-246.9231372010213
 31
0.0
  0
LINE
  5
105
330
1F
100
AcDbEntity
  8
0
  6
Continuous
 62
     2
100
AcDbLine
 10
628.4691267614469
 20
-249.6106372010213
 30
0.0
 11
628.4691267614469
 21
-249.9856372010213
 31
0.0
  0
LINE
  5
106
330
1F
100
AcDbEntity
  8
0
  6
Continuous
 62
     2
100
AcDbLine
 10
628.4691267614469
 20
-247.8606372010213
 30
0.0
 11
628.3441267614469
 21
-248.7356372010215
 31
0.0
  0
LINE
  5
107
330
1F
100
AcDbEntity
  8
0
  6
Continuous
 62
     2
100
AcDbLine
 10
628.4691267614469
 20
-251.1106372010217
 30
0.0
 11
628.2816267614469
 21
-250.9231372010217
 31
0.0
  0
LINE
  5
108
330
1F
100
AcDbEntity
  8
0
  6
Continuous
 62
     2
100
AcDbLine
 10
628.6566267614469
 20
-251.2356372010215
 30
0.0
 11
628.4691267614469
 21
-251.1106372010217
 31
0.0
  0
LINE
  5
109
330
1F
100
AcDbEntity
  8
0
  6
Continuous
 62
     2
100
AcDbLine
 10
628.6566267614469
 20
-248.4231372010215
 30
0.0
 11
628.3441267614469
 21
-248.7356372010215
 31
0.0
  0
LINE
  5
10A
330
1F
100
AcDbEntity
  8
0
  6
Continuous
 62
     2
100
AcDbLine
 10
628.9691267614469
 20
-251.3606372010215
 30
0.0
 11
628.6566267614469
 21
-251.2356372010215
 31
0.0
  0
LINE
  5
10B
330
1F
100
AcDbEntity
  8
0
  6
Continuous
 62
     2
100
AcDbLine
 10
628.6566267614469
 20
-248.4231372010215
 30
0.0
 11
628.9691267614469
 21
-248.2356372010215
 31
0.0
  0
LINE
  5
10C
330
1F
100
AcDbEntity
  8
0
  6
Continuous
 62
     2
100
AcDbLine
 10
628.4691267614469
 20
-246.7356372010215
 30
0.0
 11
628.6566267614469
 21
-246.6106372010215
 31
0.0
  0
LINE
  5
10D
330
1F
100
AcDbEntity
  8
0
  6
Continuous
 62
     2
100
AcDbLine
 10
628.9691267614469
 20
-246.4856372010215
 30
0.0
 11
628.6566267614469
 21
-246.6106372010215
 31
0.0
  0
LINE
  5
10E
330
1F
100
AcDbEntity
  8
0
  6
Continuous
 62
     2
100
AcDbLine
 10
628.2816267614473
 20
-246.9231372010213
 30
0.0
 11
628.4691267614469
 21
-246.7356372010215
 31
0.0
  0
LINE
  5
10F
330
1F
100
AcDbEntity
  8
0
  6
Continuous
 62
     2
100
AcDbLine
 10
627.1816559429026
 20
-211.0594595692544
 30
0.0
 11
628.3538889259457
 21
-213.0898266541938
 31
0.0
  0
LINE
  5
110
330
1F
100
AcDbEntity
  8
0
  6
Continuous
 62
     2
100
AcDbLine
 10
628.2095513586482
 20
-214.1731599875266
 30
0.0
 11
627.3538889259457
 21
-212.6911091799575
 31
0.0
  0
LINE
  5
111
330
1F
100
AcDbEntity
  8
0
  6
Continuous
 62
     2
100
AcDbLine
 10
628.3226389259457
 20
-221.4231599875875
 30
0.0
 11
628.3226389259457
 21
-226.4231599875875
 31
0.0
  0
LINE
  5
112
330
1F
100
AcDbEntity
  8
0
  6
Continuous
 62
     2
100
AcDbLine
 10
628.3226389259457
 20
-226.4231599875875
 30
0.0
 11
628.9476389259457
 21
-226.4231599875875
 31
0.0
  0
LINE
  5
113
330
1F
100
AcDbEntity
  8
0
  6
Continuous
 62
     2
100
AcDbLine
 10
628.9476389259457
 20
-226.4231599875875
 30
0.0
 11
628.9476389259457
 21
-222.5481599875875
 31
0.0
  0
LINE
  5
114
330
1F
100
AcDbEntity
  8
0
  6
Continuous
 62
     2
100
AcDbLine
 10
628.0941267614469
 20
-250.6731372010215
 30
0.0
 11
627.9691267614469
 21
-250.4231372010213
 31
0.0
  0
LINE
  5
115
330
1F
100
AcDbEntity
  8
0
  6
Continuous
 62
     2
100
AcDbLine
 10
627.8441267614469
 20
-250.1106372010213
 30
0.0
 11
627.7816267614469
 21
-249.7356372010211
 31
0.0
  0
LINE
  5
116
330
1F
100
AcDbEntity
  8
0
  6
Continuous
 62
     2
100
AcDbLine
 10
627.7816267614469
 20
-249.7356372010211
 30
0.0
 11
627.7191267614469
 21
-249.1731372010213
 31
0.0
  0
LINE
  5
117
330
1F
100
AcDbEntity
  8
0
  6
Continuous
 62
     2
100
AcDbLine
 10
627.4441267614473
 20
-259.4231372010214
 30
0.0
 11
627.1441267614471
 21
-259.4231372010214
 31
0.0
  0
LINE
  5
118
330
1F
100
AcDbEntity
  8
0
  6
Continuous
 62
     2
100
AcDbLine
 10
627.7191267614469
 20
-249.1731372010213
 30
0.0
 11
627.7191267614469
 21
-248.6731372010215
 31
0.0
  0
LINE
  5
119
330
1F
100
AcDbEntity
  8
0
  6
Continuous
 62
     2
100
AcDbLine
 10
627.7816267614469
 20
-248.1106372010208
 30
0.0
 11
627.7191267614469
 21
-248.6731372010215
 31
0.0
  0
LINE
  5
11A
330
1F
100
AcDbEntity
  8
0
  6
Continuous
 62
     2
100
AcDbLine
 10
627.7816267614469
 20
-248.1106372010208
 30
0.0
 11
627.8441267614469
 21
-247.7356372010213
 31
0.0
  0
LINE
  5
11B
330
1F
100
AcDbEntity
  8
0
  6
Continuous
 62
     2
100
AcDbLine
 10
627.4441267614468
 20
-258.5231372010214
 30
0.0
 11
627.4441267614473
 21
-259.4231372010214
 31
0.0
  0
LINE
  5
11C
330
1F
100
AcDbEntity
  8
0
  6
Continuous
 62
     2
100
AcDbLine
 10
627.3538889259457
 20
-212.6911091799575
 30
0.0
 11
627.3538889259457
 21
-216.0755749148937
 31
0.0
  0
LINE
  5
11D
330
1F
100
AcDbEntity
  8
0
  6
Continuous
 62
     2
100
AcDbLine
 10
627.1441267614471
 20
-258.5231372010214
 30
0.0
 11
627.4441267614468
 21
-258.5231372010214
 31
0.0
  0
LINE
  5
11E
330
1F
100
AcDbEntity
  8
0
  6
Continuous
 62
     2
100
AcDbLine
 10
627.8539814414492
 20
-218.4805425225306
 30
0.0
 11
625.687407290286
 21
-217.2305958968593
 31
0.0
  0
LINE
  5
11F
330
1F
100
AcDbEntity
  8
0
  6
Continuous
 62
     2
100
AcDbLine
 10
627.1441267614468
 20
-253.4231372010215
 30
0.0
 11
627.4441267614468
 21
-253.4231372010213
 31
0.0
  0
LINE
  5
120
330
1F
100
AcDbEntity
  8
0
  6
Continuous
 62
     2
100
AcDbLine
 10
625.7601389259457
 20
-222.0481599875875
 30
0.0
 11
627.3226389259457
 21
-222.0481599875875
 31
0.0
  0
LINE
  5
121
330
1F
100
AcDbEntity
  8
0
  6
Continuous
 62
     2
100
AcDbLine
 10
627.4441267614468
 20
-253.4231372010213
 30
0.0
 11
627.444126761447
 21
-254.3231372010214
 31
0.0
  0
LINE
  5
122
330
1F
100
AcDbEntity
  8
0
  6
Continuous
 62
     2
100
AcDbLine
 10
627.444126761447
 20
-254.3231372010214
 30
0.0
 11
627.1441267614468
 21
-254.3231372010214
 31
0.0
  0
LINE
  5
123
330
1F
100
AcDbEntity
  8
0
  6
Continuous
 62
     2
100
AcDbLine
 10
626.0205555926125
 20
-212.0006598273596
 30
0.0
 11
626.0205555926125
 21
-216.6531388394935
 31
0.0
  0
LINE
  5
124
330
1F
100
AcDbEntity
  8
0
  6
Continuous
 62
     2
100
AcDbLine
 10
626.687222259279
 20
-211.1919426754914
 30
0.0
 11
626.687222259279
 21
-216.0755749148937
 31
0.0
  0
LINE
  5
125
330
1F
100
AcDbEntity
  8
0
  6
Continuous
 62
     2
100
AcDbLine
 10
626.4066267614469
 20
-246.923137201022
 30
0.0
 11
626.1566267614473
 21
-246.6731372010217
 31
0.0
  0
LINE
  5
126
330
1F
100
AcDbEntity
  8
0
  6
Continuous
 62
     2
100
AcDbLine
 10
626.6566267614469
 20
-247.2981372010215
 30
0.0
 11
626.7191267614469
 21
-247.7356372010213
 31
0.0
  0
LINE
  5
127
330
1F
100
AcDbEntity
  8
0
  6
Continuous
 62
     2
100
AcDbLine
 10
626.7191267614469
 20
-248.1106372010213
 30
0.0
 11
626.7191267614469
 21
-247.7356372010213
 31
0.0
  0
LINE
  5
128
330
1F
100
AcDbEntity
  8
0
  6
Continuous
 62
     2
100
AcDbLine
 10
626.7191267614469
 20
-248.1106372010213
 30
0.0
 11
626.6566267614469
 21
-248.5481372010213
 31
0.0
  0
LINE
  5
129
330
1F
100
AcDbEntity
  8
0
  6
Continuous
 62
     2
100
AcDbLine
 10
626.4066267614473
 20
-248.9231372010211
 30
0.0
 11
626.6566267614469
 21
-248.5481372010213
 31
0.0
  0
LINE
  5
12A
330
1F
100
AcDbEntity
  8
0
  6
Continuous
 62
     2
100
AcDbLine
 10
625.7816267614469
 20
-246.4856372010217
 30
0.0
 11
626.1566267614473
 21
-246.6731372010217
 31
0.0
  0
LINE
  5
12B
330
1F
100
AcDbEntity
  8
0
  6
Continuous
 62
     2
100
AcDbLine
 10
626.0941267614469
 20
-248.1106372010215
 30
0.0
 11
625.9691267614469
 21
-248.4231372010215
 31
0.0
  0
LINE
  5
12C
330
1F
100
AcDbEntity
  8
0
  6
Continuous
 62
     2
100
AcDbLine
 10
626.0941267614469
 20
-247.7356372010213
 30
0.0
 11
625.9691267614469
 21
-247.4231372010213
 31
0.0
  0
LINE
  5
12D
330
1F
100
AcDbEntity
  8
0
  6
Continuous
 62
     2
100
AcDbLine
 10
625.9691267614469
 20
-247.4231372010213
 30
0.0
 11
625.7816267614469
 21
-247.2356372010215
 31
0.0
  0
LINE
  5
12E
330
1F
100
AcDbEntity
  8
0
  6
Continuous
 62
     2
100
AcDbLine
 10
626.0941267614469
 20
-247.7356372010213
 30
0.0
 11
626.0941267614469
 21
-248.1106372010215
 31
0.0
  0
LINE
  5
12F
330
1F
100
AcDbEntity
  8
0
  6
Continuous
 62
     2
100
AcDbLine
 10
626.4066267614473
 20
-248.9231372010211
 30
0.0
 11
626.1566267614473
 21
-249.1731372010213
 31
0.0
  0
LINE
  5
130
330
1F
100
AcDbEntity
  8
0
  6
Continuous
 62
     2
100
AcDbLine
 10
625.9691267614469
 20
-248.4231372010215
 30
0.0
 11
625.7816267614473
 21
-248.6106372010213
 31
0.0
  0
LINE
  5
131
330
1F
100
AcDbEntity
  8
0
  6
Continuous
 62
     2
100
AcDbLine
 10
625.5538889259458
 20
-336.1107897868914
 30
0.0
 11
625.5538889259458
 21
-278.6231372010214
 31
0.0
  0
LINE
  5
132
330
1F
100
AcDbEntity
  8
0
  6
Continuous
 62
     2
100
AcDbLine
 10
626.1566267614473
 20
-249.1731372010213
 30
0.0
 11
625.7816267614469
 21
-249.3606372010215
 31
0.0
  0
LINE
  5
133
330
1F
100
AcDbEntity
  8
0
  6
Continuous
 62
     2
100
AcDbLine
 10
626.6566267614469
 20
-247.2981372010215
 30
0.0
 11
626.4066267614469
 21
-246.923137201022
 31
0.0
  0
LINE
  5
134
330
1F
100
AcDbEntity
  8
0
  6
Continuous
 62
     2
100
AcDbLine
 10
625.7601389259457
 20
-226.4231599875875
 30
0.0
 11
625.7601389259457
 21
-222.0481599875875
 31
0.0
  0
LINE
  5
135
330
1F
100
AcDbEntity
  8
0
  6
Continuous
 62
     2
100
AcDbLine
 10
627.3226389259457
 20
-222.0481599875875
 30
0.0
 11
627.3226389259457
 21
-221.4231599875875
 31
0.0
  0
LINE
  5
136
330
1F
100
AcDbEntity
  8
0
  6
Continuous
 62
     2
100
AcDbLine
 10
627.9691267614469
 20
-250.4231372010213
 30
0.0
 11
627.8441267614469
 21
-250.1106372010213
 31
0.0
  0
LINE
  5
137
330
1F
100
AcDbEntity
  8
0
  6
Continuous
 62
     2
100
AcDbLine
 10
627.8441267614469
 20
-247.7356372010213
 30
0.0
 11
627.9691267614469
 21
-247.4231372010215
 31
0.0
  0
LINE
  5
138
330
1F
100
AcDbEntity
  8
0
  6
Continuous
 62
     2
100
AcDbLine
 10
627.9691267614469
 20
-247.4231372010215
 30
0.0
 11
628.0941267614469
 21
-247.1731372010213
 31
0.0
  0
LINE
  5
139
330
1F
100
AcDbEntity
  8
0
  6
Continuous
 62
     2
100
AcDbLine
 10
626.0205555926125
 20
-216.6531388394935
 30
0.0
 11
628.1871297437758
 21
-217.9030854651648
 31
0.0
  0
LINE
  5
13A
330
1F
100
AcDbEntity
  8
0
  6
Continuous
 62
     2
100
AcDbLine
 10
628.9691267614469
 20
-246.4856372010215
 30
0.0
 11
629.2191267614469
 21
-246.4231372010215
 31
0.0
  0
LINE
  5
13B
330
1F
100
AcDbEntity
  8
0
  6
Continuous
 62
     2
100
AcDbLine
 10
629.1976389259457
 20
-221.4231599875875
 30
0.0
 11
628.3226389259457
 21
-221.4231599875875
 31
0.0
  0
LINE
  5
13C
330
1F
100
AcDbEntity
  8
0
  6
Continuous
 62
     2
100
AcDbLine
 10
629.3538889259457
 20
-212.6911091799575
 30
0.0
 11
628.4982264932432
 21
-214.1731599875268
 31
0.0
  0
LINE
  5
13D
330
1F
100
AcDbEntity
  8
0
  6
Continuous
 62
     2
100
AcDbLine
 10
629.5261219089889
 20
-211.0594595692544
 30
0.0
 11
628.3538889259457
 21
-213.0898266541938
 31
0.0
  0
LINE
  5
13E
330
1F
100
AcDbEntity
  8
0
  6
Continuous
 62
     2
100
AcDbLine
 10
630.0205555926125
 20
-217.6148909169244
 30
0.0
 11
630.0205555926125
 21
-211.1919426754914
 31
0.0
  0
LINE
  5
13F
330
1F
100
AcDbEntity
  8
0
  6
Continuous
 62
     2
100
AcDbLine
 10
629.6566267614469
 20
-246.4231372010215
 30
0.0
 11
629.9066267614469
 21
-246.4856372010215
 31
0.0
  0
LINE
  5
140
330
1F
100
AcDbEntity
  8
0
  6
Continuous
 62
     2
100
AcDbLine
 10
629.9066267614469
 20
-251.3606372010215
 30
0.0
 11
629.5941267614469
 21
-251.4231372010215
 31
0.0
  0
LINE
  5
141
330
1F
100
AcDbEntity
  8
0
  6
Continuous
 62
     2
100
AcDbLine
 10
629.5941267614469
 20
-248.1731372010215
 30
0.0
 11
629.9066267614469
 21
-248.2356372010215
 31
0.0
  0
LINE
  5
142
330
1F
100
AcDbEntity
  8
0
  6
Continuous
 62
     2
100
AcDbLine
 10
629.5941267614473
 20
-248.7981372010215
 30
0.0
 11
629.2816267614469
 21
-248.7981372010215
 31
0.0
  0
LINE
  5
143
330
1F
100
AcDbEntity
  8
0
  6
Continuous
 62
     2
100
AcDbLine
 10
629.2816267614469
 20
-250.7981372010215
 30
0.0
 11
629.5941267614469
 21
-250.7981372010215
 31
0.0
  0
LINE
  5
144
330
1F
100
AcDbEntity
  8
0
  6
Continuous
 62
     2
100
AcDbLine
 10
629.2816267614469
 20
-248.1731372010215
 30
0.0
 11
629.5941267614469
 21
-248.1731372010215
 31
0.0
  0
LINE
  5
145
330
1F
100
AcDbEntity
  8
0
  6
Continuous
 62
     2
100
AcDbLine
 10
629.5941267614469
 20
-251.4231372010215
 30
0.0
 11
629.2816267614469
 21
-251.4231372010215
 31
0.0
  0
LINE
  5
146
330
1F
100
AcDbEntity
  8
0
  6
Continuous
 62
     2
100
AcDbLine
 10
629.9538889259456
 20
-278.6231372010214
 30
0.0
 11
629.9538889259454
 21
-336.1107897868914
 31
0.0
  0
LINE
  5
147
330
1F
100
AcDbEntity
  8
0
  6
Continuous
 62
     2
100
AcDbLine
 10
625.4691267614469
 20
-248.7356372010215
 30
0.0
 11
625.7816267614473
 21
-248.6106372010213
 31
0.0
  0
LINE
  5
148
330
1F
100
AcDbEntity
  8
0
  6
Continuous
 62
     2
100
AcDbLine
 10
625.0941267614469
 20
-247.0481372010215
 30
0.0
 11
625.4691267614469
 21
-247.1106372010215
 31
0.0
  0
LINE
  5
149
330
1F
100
AcDbEntity
  8
0
  6
Continuous
 62
     2
100
AcDbLine
 10
625.4691267614469
 20
-248.7356372010215
 30
0.0
 11
625.0941267614469
 21
-248.7981372010215
 31
0.0
  0
LINE
  5
14A
330
1F
100
AcDbEntity
  8
0
  6
Continuous
 62
     2
100
AcDbLine
 10
625.0726389259457
 20
-226.4231599875875
 30
0.0
 11
625.7601389259457
 21
-226.4231599875875
 31
0.0
  0
LINE
  5
14B
330
1F
100
AcDbEntity
  8
0
  6
Continuous
 62
     2
100
AcDbLine
 10
633.1976389259457
 20
-221.4231599875875
 30
0.0
 11
632.3226389259457
 21
-221.4231599875875
 31
0.0
  0
LINE
  5
14C
330
1F
100
AcDbEntity
  8
0
  6
Continuous
 62
     2
100
AcDbLine
 10
633.1976389259457
 20
-226.4231599875875
 30
0.0
 11
633.1976389259457
 21
-221.4231599875875
 31
0.0
  0
LINE
  5
14D
330
1F
100
AcDbEntity
  8
0
  6
Continuous
 62
     2
100
AcDbLine
 10
633.5316267614469
 20
-250.485637201022
 30
0.0
 11
633.7191267614469
 21
-249.7356372010213
 31
0.0
  0
LINE
  5
14E
330
1F
100
AcDbEntity
  8
0
  6
Continuous
 62
     2
100
AcDbLine
 10
633.5316267614469
 20
-250.485637201022
 30
0.0
 11
633.4066267614469
 21
-251.4231372010215
 31
0.0
  0
LINE
  5
14F
330
1F
100
AcDbEntity
  8
0
  6
Continuous
 62
     2
100
AcDbLine
 10
632.2441267614472
 20
-258.5231372010214
 30
0.0
 11
632.5441267614472
 21
-258.5231372010214
 31
0.0
  0
LINE
  5
150
330
1F
100
AcDbEntity
  8
0
  6
Continuous
 62
     2
100
AcDbLine
 10
631.9441267614473
 20
-256.8731372010214
 30
0.0
 11
631.9441267614468
 21
-255.9731372010214
 31
0.0
  0
LINE
  5
151
330
1F
100
AcDbEntity
  8
0
  6
Continuous
 62
     2
100
AcDbLine
 10
632.5441267614472
 20
-259.4231372010214
 30
0.0
 11
632.2441267614472
 21
-259.4231372010214
 31
0.0
  0
LINE
  5
152
330
1F
100
AcDbEntity
  8
0
  6
Continuous
 62
     2
100
AcDbLine
 10
632.7816267614469
 20
-250.4231372010213
 30
0.0
 11
632.6566267614469
 21
-251.4231372010213
 31
0.0
  0
LINE
  5
153
330
1F
100
AcDbEntity
  8
0
  6
Continuous
 62
     2
100
AcDbLine
 10
632.7816267614469
 20
-250.4231372010213
 30
0.0
 11
633.0941267614469
 21
-249.4856372010213
 31
0.0
  0
LINE
  5
154
330
1F
100
AcDbEntity
  8
0
  6
Continuous
 62
     2
100
AcDbLine
 10
633.3441267614469
 20
-248.9231372010213
 30
0.0
 11
633.0941267614469
 21
-249.4856372010213
 31
0.0
  0
LINE
  5
155
330
1F
100
AcDbEntity
  8
0
  6
Continuous
 62
     2
100
AcDbLine
 10
633.4066267614469
 20
-251.4231372010215
 30
0.0
 11
632.6566267614469
 21
-251.4231372010213
 31
0.0
  0
LINE
  5
156
330
1F
100
AcDbEntity
  8
0
  6
Continuous
 62
     2
100
AcDbLine
 10
633.3441267614469
 20
-248.9231372010213
 30
0.0
 11
633.7191267614469
 21
-248.1731372010213
 31
0.0
  0
LINE
  5
157
330
1F
100
AcDbEntity
  8
0
  6
Continuous
 62
     2
100
AcDbLine
 10
632.0316267614469
 20
-246.4231372010215
 30
0.0
 11
635.2816267614469
 21
-246.4231372010215
 31
0.0
  0
LINE
  5
158
330
1F
100
AcDbEntity
  8
0
  6
Continuous
 62
     2
100
AcDbLine
 10
632.5441267614469
 20
-253.4231372010213
 30
0.0
 11
632.244126761447
 21
-253.4231372010215
 31
0.0
  0
LINE
  5
159
330
1F
100
AcDbEntity
  8
0
  6
Continuous
 62
     2
100
AcDbLine
 10
632.244126761447
 20
-254.3231372010214
 30
0.0
 11
632.5441267614469
 21
-254.3231372010214
 31
0.0
  0
LINE
  5
15A
330
1F
100
AcDbEntity
  8
0
  6
Continuous
 62
     2
100
AcDbLine
 10
632.0316267614469
 20
-247.0481372010213
 30
0.0
 11
632.0316267614469
 21
-246.4231372010215
 31
0.0
  0
LINE
  5
15B
330
1F
100
AcDbEntity
  8
0
  6
Continuous
 62
     2
100
AcDbLine
 10
632.5726389259457
 20
-226.4231599875875
 30
0.0
 11
633.1976389259457
 21
-226.4231599875875
 31
0.0
  0
LINE
  5
15C
330
1F
100
AcDbEntity
  8
0
  6
Continuous
 62
     2
100
AcDbLine
 10
634.5316267614469
 20
-247.0481372010215
 30
0.0
 11
632.0316267614469
 21
-247.0481372010213
 31
0.0
  0
LINE
  5
15D
330
1F
100
AcDbEntity
  8
0
  6
Continuous
 62
     2
100
AcDbLine
 10
632.5726389259457
 20
-222.5481599875875
 30
0.0
 11
632.5726389259457
 21
-226.4231599875875
 31
0.0
  0
LINE
  5
15E
330
1F
100
AcDbEntity
  8
0
  6
Continuous
 62
     2
100
AcDbLine
 10
632.5441267614469
 20
-253.4231372010213
 30
0.0
 11
632.5441267614469
 21
-254.3231372010214
 31
0.0
  0
LINE
  5
15F
330
1F
100
AcDbEntity
  8
0
  6
Continuous
 62
     2
100
AcDbLine
 10
632.5441267614472
 20
-259.4231372010214
 30
0.0
 11
632.5441267614472
 21
-258.5231372010214
 31
0.0
  0
LINE
  5
160
330
1F
100
AcDbEntity
  8
0
  6
Continuous
 62
     2
100
AcDbLine
 10
634.0316267614469
 20
-248.9856372010215
 30
0.0
 11
633.7191267614469
 21
-249.7356372010213
 31
0.0
  0
LINE
  5
161
330
1F
100
AcDbEntity
  8
0
  6
Continuous
 62
     2
100
AcDbLine
 10
633.7191267614469
 20
-248.1731372010213
 30
0.0
 11
634.5316267614469
 21
-247.0481372010215
 31
0.0
  0
LINE
  5
162
330
1F
100
AcDbEntity
  8
0
  6
Continuous
 62
     2
100
AcDbLine
 10
635.2816267614469
 20
-246.4231372010215
 30
0.0
 11
635.2816267614469
 21
-246.9856372010215
 31
0.0
  0
LINE
  5
163
330
1F
100
AcDbEntity
  8
0
  6
Continuous
 62
     2
100
AcDbLine
 10
634.7538889259456
 20
-278.6231372010214
 30
0.0
 11
634.7538889259456
 21
-336.1107897868914
 31
0.0
  0
LINE
  5
164
330
1F
100
AcDbEntity
  8
0
  6
Continuous
 62
     2
100
AcDbLine
 10
635.1538889259457
 20
-336.1107897868914
 30
0.0
 11
635.1538889259457
 21
-278.6231372010214
 31
0.0
  0
LINE
  5
165
330
1F
100
AcDbEntity
  8
0
  6
Continuous
 62
     2
100
AcDbLine
 10
634.5316267614469
 20
-248.0481372010213
 30
0.0
 11
634.0316267614469
 21
-248.9856372010215
 31
0.0
  0
LINE
  5
166
330
1F
100
AcDbEntity
  8
0
  6
Continuous
 62
     2
100
AcDbLine
 10
634.5316267614469
 20
-248.0481372010213
 30
0.0
 11
635.2816267614469
 21
-246.9856372010215
 31
0.0
  0
LINE
  5
167
330
1F
100
AcDbEntity
  8
0
  6
Continuous
 62
     2
100
AcDbLine
 10
639.9538889259459
 20
-336.1107897868914
 30
0.0
 11
639.9538889259459
 21
-194.6231589405124
 31
0.0
  0
LINE
  5
168
330
1F
100
AcDbEntity
  8
0
  6
Continuous
 62
     2
100
AcDbLine
 10
632.1873147747826
 20
-213.0586191252726
 30
0.0
 11
631.3538889259457
 21
-212.5777965201744
 31
0.0
  0
LINE
  5
169
330
1F
100
AcDbEntity
  8
0
  6
Continuous
 62
     2
100
AcDbLine
 10
631.3538889259457
 20
-214.0898266541938
 30
0.0
 11
632.3538889259457
 21
-214.0898266541938
 31
0.0
  0
LINE
  5
16A
330
1F
100
AcDbEntity
  8
0
  6
Continuous
 62
     2
100
AcDbLine
 10
632.3538889259457
 20
-214.7564933208594
 30
0.0
 11
631.3538889259457
 21
-214.7564933208594
 31
0.0
  0
LINE
  5
16B
330
1F
100
AcDbEntity
  8
0
  6
Continuous
 62
     2
100
AcDbLine
 10
631.1871297437758
 20
-211.7119312986767
 30
0.0
 11
632.5204630771095
 21
-212.4811620679068
 31
0.0
  0
LINE
  5
16C
330
1F
100
AcDbEntity
  8
0
  6
Continuous
 62
     2
100
AcDbLine
 10
631.3538889259457
 20
-212.5777965201744
 30
0.0
 11
631.3538889259457
 21
-214.0898266541938
 31
0.0
  0
LINE
  5
16D
330
1F
100
AcDbEntity
  8
0
  6
Continuous
 62
     2
100
AcDbLine
 10
631.3538889259457
 20
-214.7564933208594
 30
0.0
 11
631.3538889259457
 21
-216.2685234548785
 31
0.0
  0
LINE
  5
16E
330
1F
100
AcDbEntity
  8
0
  6
Continuous
 62
     2
100
AcDbLine
 10
631.3538889259457
 20
-216.2685234548785
 30
0.0
 11
632.1873147747831
 21
-215.7877008497812
 31
0.0
  0
LINE
  5
16F
330
1F
100
AcDbEntity
  8
0
  6
Continuous
 62
     2
100
AcDbLine
 10
632.5204630771088
 20
-216.3651579071457
 30
0.0
 11
631.187129743776
 21
-217.1343886763773
 31
0.0
  0
LINE
  5
170
330
1F
100
AcDbEntity
  8
0
  6
Continuous
 62
     2
100
AcDbLine
 10
632.3226389259457
 20
-221.4231599875875
 30
0.0
 11
630.7601389259457
 21
-225.4231599875875
 31
0.0
  0
LINE
  5
171
330
1F
100
AcDbEntity
  8
0
  6
Continuous
 62
     2
100
AcDbLine
 10
631.0726389259457
 20
-226.4231599875875
 30
0.0
 11
632.5726389259457
 21
-222.5481599875875
 31
0.0
  0
LINE
  5
172
330
1F
100
AcDbEntity
  8
0
  6
Continuous
 62
     2
100
AcDbLine
 10
625.0941267614469
 20
-247.0481372010215
 30
0.0
 11
623.7816267614469
 21
-247.0481372010215
 31
0.0
  0
LINE
  5
173
330
1F
100
AcDbEntity
  8
0
  6
Continuous
 62
     2
100
AcDbLine
 10
625.0941267614469
 20
-248.7981372010215
 30
0.0
 11
623.7816267614469
 21
-248.7981372010215
 31
0.0
  0
LINE
  5
174
330
1F
100
AcDbEntity
  8
0
  6
Continuous
 62
     2
100
AcDbLine
 10
625.2816267614469
 20
-249.4231372010215
 30
0.0
 11
623.7816267614469
 21
-249.4231372010213
 31
0.0
  0
LINE
  5
175
330
1F
100
AcDbEntity
  8
0
  6
Continuous
 62
     2
100
AcDbLine
 10
623.5101389259457
 20
-222.0481599875875
 30
0.0
 11
625.0726389259457
 21
-222.0481599875875
 31
0.0
  0
LINE
  5
176
330
1F
100
AcDbEntity
  8
0
  6
Continuous
 62
     2
100
AcDbLine
 10
627.3226389259457
 20
-221.4231599875875
 30
0.0
 11
623.5101389259457
 21
-221.4231599875875
 31
0.0
  0
LINE
  5
177
330
1F
100
AcDbEntity
  8
0
  6
Continuous
 62
     2
100
AcDbLine
 10
625.2816267614469
 20
-246.4231372010215
 30
0.0
 11
623.0941267614469
 21
-246.4231372010215
 31
0.0
  0
LINE
  5
178
330
1F
100
AcDbEntity
  8
0
  6
Continuous
 62
     2
100
AcDbLine
 10
642.9081698606149
 20
-347.5447152665864
 30
0.0
 11
642.1525184607019
 21
-346.7890638666773
 31
0.0
  0
LINE
  5
179
330
1F
100
AcDbEntity
  8
0
  6
Continuous
 62
     2
100
AcDbLine
 10
641.1538889259461
 20
-338.8000275886403
 30
0.0
 11
641.1538889259457
 21
-194.4231589405124
 31
0.0
  0
LINE
  5
17A
330
1F
100
AcDbEntity
  8
0
  6
Continuous
 62
     2
100
AcDbLine
 10
649.898576603897
 20
-340.5543085233045
 30
0.0
 11
649.1429252039841
 21
-339.7986571233954
 31
0.0
  0
LINE
  5
17B
330
1F
100
AcDbEntity
  8
0
  6
Continuous
 62
     2
100
AcDbLine
 10
430.6343645971152
 20
-338.8000275886403
 30
0.0
 11
641.1538889259461
 21
-338.8000275886403
 31
0.0
  0
LINE
  5
17C
330
1F
100
AcDbEntity
  8
0
  6
Continuous
 62
     7
100
AcDbLine
 10
642.9081698606149
 20
-347.5447152665864
 30
0.0
 11
428.8800836624562
 21
-347.5447152665864
 31
0.0
  0
LINE
  5
17D
330
1F
100
AcDbEntity
  8
0
  6
Continuous
 62
     2
100
AcDbLine
 10
422.6453283190804
 20
-339.7986571233954
 30
0.0
 11
421.8896769191744
 21
-340.5543085233045
 31
0.0
  0
LINE
  5
17E
330
1F
100
AcDbEntity
  8
0
  6
Continuous
 62
     2
100
AcDbLine
 10
430.6343645971155
 20
-336.1107897868914
 30
0.0
 11
430.6343645971152
 21
-338.8000275886403
 31
0.0
  0
LINE
  5
17F
330
1F
100
AcDbEntity
  8
0
  6
Continuous
 62
     7
100
AcDbLine
 10
422.8778955326819
 20
-194.0750653421044
 30
0.0
 11
422.1819871682437
 21
-194.4227809312763
 31
0.0
  0
LINE
  5
180
330
1F
100
AcDbEntity
  8
0
  6
Continuous
 62
     7
100
AcDbLine
 10
447.4941267616031
 20
-177.5402654241914
 30
0.0
 11
447.4941267616031
 21
-185.5402654241914
 31
0.0
  0
LINE
  5
181
330
1F
100
AcDbEntity
  8
0
  6
Continuous
 62
     7
100
AcDbLine
 10
447.4941267616031
 20
-177.5402654241914
 30
0.0
 11
624.2941267615613
 21
-177.5402654241914
 31
0.0
  0
LINE
  5
182
330
1F
100
AcDbEntity
  8
0
  6
Continuous
 62
     2
100
AcDbLine
 10
447.4941267616031
 20
-185.5402654241914
 30
0.0
 11
624.2941267615083
 21
-185.5402654241914
 31
0.0
  0
LINE
  5
183
330
1F
100
AcDbEntity
  8
0
  6
Continuous
 62
     2
100
AcDbLine
 10
430.6343645971152
 20
-191.9231589405124
 30
0.0
 11
447.4941267615502
 21
-191.9231589405124
 31
0.0
  0
LINE
  5
184
330
1F
100
AcDbEntity
  8
0
  6
Continuous
 62
     7
100
AcDbLine
 10
427.9417894800133
 20
-190.9231589245135
 30
0.0
 11
447.4941267615503
 21
-190.9231589405124
 31
0.0
  0
LINE
  5
185
330
1F
100
AcDbEntity
  8
0
  6
Continuous
 62
     7
100
AcDbLine
 10
422.8331481942859
 20
-194.1121679357898
 30
0.0
 11
422.8337556990761
 21
-194.1116619303245
 31
0.0
  0
LINE
  5
186
330
1F
100
AcDbEntity
  8
0
  6
Continuous
 62
     2
100
AcDbLine
 10
624.0205555926125
 20
-216.0764293784634
 30
0.0
 11
624.0205555926125
 21
-212.7698905965894
 31
0.0
  0
LINE
  5
187
330
1F
100
AcDbEntity
  8
0
  6
Continuous
 62
     7
100
AcDbLine
 10
624.2941267615083
 20
-185.5402654241914
 30
0.0
 11
624.2941267615088
 21
-190.9231589405124
 31
0.0
  0
LINE
  5
188
330
1F
100
AcDbEntity
  8
0
  6
Continuous
 62
     7
100
AcDbLine
 10
624.2941267615088
 20
-190.9231589405124
 30
0.0
 11
624.2941267615086
 21
-191.9231589405124
 31
0.0
  0
LINE
  5
189
330
1F
100
AcDbEntity
  8
0
  6
Continuous
 62
     2
100
AcDbLine
 10
623.5101389259457
 20
-221.4231599875875
 30
0.0
 11
623.5101389259457
 21
-222.0481599875875
 31
0.0
  0
LINE
  5
18A
330
1F
100
AcDbEntity
  8
0
  6
Continuous
 62
     2
100
AcDbLine
 10
623.7816267614469
 20
-248.7981372010215
 30
0.0
 11
623.7816267614469
 21
-247.0481372010215
 31
0.0
  0
LINE
  5
18B
330
1F
100
AcDbEntity
  8
0
  6
Continuous
 62
     2
100
AcDbLine
 10
623.7816267614469
 20
-251.4231372010213
 30
0.0
 11
623.7816267614469
 21
-249.4231372010213
 31
0.0
  0
LINE
  5
18C
330
1F
100
AcDbEntity
  8
0
  6
Continuous
 62
     2
100
AcDbLine
 10
623.0941267614469
 20
-251.4231372010213
 30
0.0
 11
623.7816267614469
 21
-251.4231372010213
 31
0.0
  0
LINE
  5
18D
330
1F
100
AcDbEntity
  8
0
  6
Continuous
 62
     2
100
AcDbLine
 10
621.4066267614469
 20
-251.4231372010213
 30
0.0
 11
621.4066267614469
 21
-246.4231372010215
 31
0.0
  0
LINE
  5
18E
330
1F
100
AcDbEntity
  8
0
  6
Continuous
 62
     2
100
AcDbLine
 10
621.4066267614469
 20
-246.4231372010215
 30
0.0
 11
622.0941267614469
 21
-246.4231372010215
 31
0.0
  0
LINE
  5
18F
330
1F
100
AcDbEntity
  8
0
  6
Continuous
 62
     2
100
AcDbLine
 10
623.0941267614469
 20
-251.4231372010213
 30
0.0
 11
623.0941267614469
 21
-246.4231372010215
 31
0.0
  0
LINE
  5
190
330
1F
100
AcDbEntity
  8
0
  6
Continuous
 62
     2
100
AcDbLine
 10
622.0941267614469
 20
-246.4231372010215
 30
0.0
 11
622.0941267614469
 21
-251.4231372010213
 31
0.0
  0
LINE
  5
191
330
1F
100
AcDbEntity
  8
0
  6
Continuous
 62
     2
100
AcDbLine
 10
622.0941267614469
 20
-251.4231372010213
 30
0.0
 11
621.4066267614469
 21
-251.4231372010213
 31
0.0
  0
LINE
  5
192
330
1F
100
AcDbEntity
  8
0
  6
Continuous
 62
     7
100
AcDbLine
 10
624.2941267615613
 20
-177.5402654241914
 30
0.0
 11
624.2941267615083
 21
-185.5402654241914
 31
0.0
  0
LINE
  5
193
330
1F
100
AcDbEntity
  8
0
  6
Continuous
 62
     7
100
AcDbLine
 10
447.4941267615503
 20
-190.9231589405124
 30
0.0
 11
447.4941267616031
 21
-185.5402654241914
 31
0.0
  0
LINE
  5
194
330
1F
100
AcDbEntity
  8
0
  6
Continuous
 62
     7
100
AcDbLine
 10
447.4941267615502
 20
-191.9231589405124
 30
0.0
 11
447.4941267615503
 21
-190.9231589405124
 31
0.0
  0
LINE
  5
195
330
1F
100
AcDbEntity
  8
0
  6
Continuous
 62
     2
100
AcDbLine
 10
615.9538889259459
 20
-336.1107897868914
 30
0.0
 11
615.9538889259459
 21
-194.6231589405124
 31
0.0
  0
LINE
  5
196
330
1F
100
AcDbEntity
  8
0
  6
Continuous
 62
     2
100
AcDbLine
 10
440.6343645971155
 20
-336.1107897868914
 30
0.0
 11
440.6343645971155
 21
-194.6231589405123
 31
0.0
  0
LINE
  5
197
330
1F
100
AcDbEntity
  8
0
  6
Continuous
 62
     2
100
AcDbLine
 10
445.4343645971155
 20
-336.1107897868914
 30
0.0
 11
445.4343645971155
 21
-194.6231589405123
 31
0.0
  0
LINE
  5
198
330
1F
100
AcDbEntity
  8
0
  6
Continuous
 62
     2
100
AcDbLine
 10
620.7538889259458
 20
-336.1107897868914
 30
0.0
 11
620.7538889259458
 21
-278.6231372010214
 31
0.0
  0
LINE
  5
199
330
1F
100
AcDbEntity
  8
0
  6
Continuous
 62
     2
100
AcDbLine
 10
620.3538889259455
 20
-278.6231372010214
 30
0.0
 11
620.3538889259455
 21
-336.1107897868914
 31
0.0
  0
LINE
  5
19A
330
1F
100
AcDbEntity
  8
0
  6
Continuous
 62
     2
100
AcDbLine
 10
450.2343645971154
 20
-336.1107897868914
 30
0.0
 11
450.2343645971154
 21
-194.6231589405123
 31
0.0
  0
LINE
  5
19B
330
1F
100
AcDbEntity
  8
0
  6
Continuous
 62
     2
100
AcDbLine
 10
455.0343645971154
 20
-336.1107897868914
 30
0.0
 11
455.0343645971154
 21
-194.6231589405123
 31
0.0
  0
LINE
  5
19C
330
1F
100
AcDbEntity
  8
0
  6
Continuous
 62
     2
100
AcDbLine
 10
435.8343645971156
 20
-336.1107897868914
 30
0.0
 11
435.8343645971156
 21
-194.6231589405123
 31
0.0
  0
LINE
  5
19D
330
1F
100
AcDbEntity
  8
0
  6
Continuous
 62
     2
100
AcDbLine
 10
431.0343645971154
 20
-336.1107897868914
 30
0.0
 11
431.0343645971155
 21
-194.6231589405123
 31
0.0
  0
LINE
  5
19E
330
1F
100
AcDbEntity
  8
0
  6
Continuous
 62
     2
100
AcDbLine
 10
430.6343645971152
 20
-191.9231589405124
 30
0.0
 11
430.6343645971155
 21
-336.1107897868914
 31
0.0
  0
LINE
  5
19F
330
1F
100
AcDbEntity
  8
0
  6
Continuous
 62
     2
100
AcDbLine
 10
440.2343645971154
 20
-194.6231589405124
 30
0.0
 11
440.2343645971154
 21
-336.1107897868914
 31
0.0
  0
LINE
  5
1A0
330
1F
100
AcDbEntity
  8
0
  6
Continuous
 62
     2
100
AcDbLine
 10
445.0343645971154
 20
-194.6231589405124
 30
0.0
 11
445.0343645971154
 21
-336.1107897868914
 31
0.0
  0
LINE
  5
1A1
330
1F
100
AcDbEntity
  8
0
  6
Continuous
 62
     2
100
AcDbLine
 10
449.8343645971153
 20
-194.6231589405124
 30
0.0
 11
449.8343645971153
 21
-336.1107897868914
 31
0.0
  0
LINE
  5
1A2
330
1F
100
AcDbEntity
  8
0
  6
Continuous
 62
     2
100
AcDbLine
 10
454.6343645971152
 20
-194.6231589405124
 30
0.0
 11
454.6343645971152
 21
-336.1107897868914
 31
0.0
  0
LINE
  5
1A3
330
1F
100
AcDbEntity
  8
0
  6
Continuous
 62
     2
100
AcDbLine
 10
435.4343645971151
 20
-194.6231589405124
 30
0.0
 11
435.4343645971151
 21
-336.1107897868914
 31
0.0
  0
LINE
  5
1A4
330
1F
100
AcDbEntity
  8
0
  6
Continuous
 62
     7
100
AcDbLine
 10
421.8896769191744
 20
-340.5543085233045
 30
0.0
 11
421.8896769191741
 21
-194.8727682866956
 31
0.0
  0
LINE
  5
1A5
330
1F
100
AcDbEntity
  8
0
  6
Continuous
 62
     2
100
AcDbLine
 10
1145.303407607856
 20
-339.7986571234337
 30
0.0
 11
1130.884719957913
 21
-340.5543085233437
 31
0.0
  0
LINE
  5
1A6
330
1F
100
AcDbEntity
  8
0
  6
Continuous
 62
     2
100
AcDbLine
 10
639.5538889259458
 20
-194.6231589405124
 30
0.0
 11
639.5538889259458
 21
-336.1107897868914
 31
0.0
  0
LINE
  5
1A7
330
1F
100
AcDbEntity
  8
0
  6
Continuous
 62
     2
100
AcDbLine
 10
634.7538889259456
 20
-194.6231589405124
 30
0.0
 11
634.7538889259456
 21
-203.2232897834026
 31
0.0
  0
LINE
  5
1A8
330
1F
100
AcDbEntity
  8
0
  6
Continuous
 62
     2
100
AcDbLine
 10
629.9538889259454
 20
-194.6231589405124
 30
0.0
 11
629.9538889259454
 21
-203.2232897834026
 31
0.0
  0
LINE
  5
1A9
330
1F
100
AcDbEntity
  8
0
  6
Continuous
 62
     2
100
AcDbLine
 10
625.1538889259457
 20
-194.6231589405124
 30
0.0
 11
625.1538889259457
 21
-203.2232897834026
 31
0.0
  0
LINE
  5
1AA
330
1F
100
AcDbEntity
  8
0
  6
Continuous
 62
     2
100
AcDbLine
 10
620.3538889259455
 20
-194.6231589405124
 30
0.0
 11
620.3538889259455
 21
-203.2232897834026
 31
0.0
  0
LINE
  5
1AB
330
1F
100
AcDbEntity
  8
0
  6
Continuous
 62
     2
100
AcDbLine
 10
615.5538889259458
 20
-194.6231589405124
 30
0.0
 11
615.5538889259456
 21
-336.1107897868914
 31
0.0
  0
LINE
  5
1AC
330
1F
100
AcDbEntity
  8
0
  6
Continuous
 62
     2
100
AcDbLine
 10
630.3538889259457
 20
-203.2232897834026
 30
0.0
 11
630.3538889259457
 21
-194.6231589405124
 31
0.0
  0
LINE
  5
1AD
330
1F
100
AcDbEntity
  8
0
  6
Continuous
 62
     2
100
AcDbLine
 10
625.5538889259458
 20
-203.2232897834026
 30
0.0
 11
625.5538889259458
 21
-194.6231589405124
 31
0.0
  0
LINE
  5
1AE
330
1F
100
AcDbEntity
  8
0
  6
Continuous
 62
     2
100
AcDbLine
 10
635.1538889259457
 20
-203.2232897834026
 30
0.0
 11
635.1538889259457
 21
-194.6231589405124
 31
0.0
  0
LINE
  5
1AF
330
1F
100
AcDbEntity
  8
0
  6
Continuous
 62
     2
100
AcDbLine
 10
620.7538889259456
 20
-203.2232897834026
 30
0.0
 11
620.7538889259456
 21
-194.6231589405124
 31
0.0
  0
LINE
  5
1B0
330
1F
100
AcDbEntity
  8
0
  6
Continuous
 62
     2
100
AcDbLine
 10
620.7538889259458
 20
-336.1107897868914
 30
0.0
 11
620.7538889259458
 21
-278.6231372010214
 31
0.0
  0
LINE
  5
1B1
330
1F
100
AcDbEntity
  8
1
  6
Continuous
 62
     7
100
AcDbLine
 10
629.853888925946
 20
-262.9231372010214
 30
0.0
 11
626.853888925946
 21
-262.9231372010214
 31
0.0
  0
LINE
  5
1B2
330
1F
100
AcDbEntity
  8
1
  6
Continuous
 62
     7
100
AcDbLine
 10
629.853888925946
 20
-265.9231372010214
 30
0.0
 11
629.853888925946
 21
-262.9231372010214
 31
0.0
  0
LINE
  5
1B3
330
1F
100
AcDbEntity
  8
1
  6
Continuous
 62
     7
100
AcDbLine
 10
626.853888925946
 20
-265.9231372010214
 30
0.0
 11
629.853888925946
 21
-265.9231372010214
 31
0.0
  0
LINE
  5
1B4
330
1F
100
AcDbEntity
  8
1
  6
Continuous
 62
     7
100
AcDbLine
 10
626.853888925946
 20
-262.9231372010214
 30
0.0
 11
626.853888925946
 21
-265.9231372010214
 31
0.0
  0
LINE
  5
1B5
330
1F
100
AcDbEntity
  8
1
  6
Continuous
 62
     7
100
AcDbLine
 10
631.353888925946
 20
-261.4231372010214
 30
0.0
 11
625.353888925946
 21
-261.4231372010214
 31
0.0
  0
LINE
  5
1B6
330
1F
100
AcDbEntity
  8
1
  6
Continuous
 62
     7
100
AcDbLine
 10
631.353888925946
 20
-267.4231372010214
 30
0.0
 11
631.353888925946
 21
-261.4231372010214
 31
0.0
  0
LINE
  5
1B7
330
1F
100
AcDbEntity
  8
1
  6
Continuous
 62
     7
100
AcDbLine
 10
625.353888925946
 20
-267.4231372010214
 30
0.0
 11
631.353888925946
 21
-267.4231372010214
 31
0.0
  0
LINE
  5
1B8
330
1F
100
AcDbEntity
  8
1
  6
Continuous
 62
     7
100
AcDbLine
 10
625.353888925946
 20
-261.4231372010214
 30
0.0
 11
625.353888925946
 21
-267.4231372010214
 31
0.0
  0
LINE
  5
1B9
330
1F
100
AcDbEntity
  8
1
  6
Continuous
 62
     2
100
AcDbLine
 10
421.9327163591219
 20
-193.9275154884979
 30
0.0
 11
423.4530256728602
 21
-193.9275154884979
 31
0.0
  0
LINE
  5
1BA
330
1F
100
AcDbEntity
  8
0
  6
Continuous
 62
     7
100
AcDbLine
 10
624.6441267615091
 20
-174.7638180884185
 30
0.0
 11
624.6441267615073
 21
-178.2354208826546
 31
0.0
  0
LINE
  5
1BB
330
1F
100
AcDbEntity
  8
1
  6
Continuous
 62
     2
100
AcDbLine
 10
649.017472723979
 20
-186.6502622705373
 30
0.0
 11
649.0537093534912
 21
-187.3135500636494
 31
0.0
  0
LINE
  5
1BC
330
1F
100
AcDbEntity
  8
0
  6
Continuous
 62
     7
100
AcDbLine
 10
650.8941267615226
 20
-341.5426641493819
 30
0.0
 11
650.8941267615226
 21
-171.5378666990251
 31
0.0
  0
LINE
  5
1BD
330
1F
100
AcDbEntity
  8
0
  6
Continuous
 62
     2
100
AcDbLine
 10
641.3941267614907
 20
-179.1711950320496
 30
0.0
 11
641.3941267614838
 21
-179.9485893549449
 31
0.0
  0
LINE
  5
1BE
330
1F
100
AcDbEntity
  8
0
  6
Continuous
 62
     7
100
AcDbLine
 10
1117.384719958075
 20
-164.8283105614547
 30
0.0
 11
1117.884719958073
 21
-165.0462231445592
 31
0.0
  0
LINE
  5
1BF
330
1F
100
AcDbEntity
  8
1
  6
Continuous
 62
     7
100
AcDbLine
 10
1117.384719958075
 20
-178.6841165965886
 30
0.0
 11
1117.384719958074
 21
-179.1711950320496
 31
0.0
  0
LINE
  5
1C0
330
1F
100
AcDbEntity
  8
0
  6
Continuous
 62
     7
100
AcDbLine
 10
1117.384719958074
 20
-179.1711950320496
 30
0.0
 11
1117.384719957998
 21
-341.2546190121229
 31
0.0
  0
LINE
  5
1C1
330
1F
100
AcDbEntity
  8
1
  6
Continuous
 62
     7
100
AcDbLine
 10
1117.384719958075
 20
-164.8283105614547
 30
0.0
 11
1116.897808432228
 21
-164.815560334428
 31
0.0
  0
LINE
  5
1C2
330
1F
100
AcDbEntity
  8
1
  6
Continuous
 62
     7
100
AcDbLine
 10
1117.384719958075
 20
-164.8283105614547
 30
0.0
 11
1117.384719958075
 21
-165.3153889969157
 31
0.0
  0
LINE
  5
1C3
330
1F
100
AcDbEntity
  8
0
  6
Continuous
 62
     7
100
AcDbLine
 10
1130.410887936168
 20
-347.5695477506466
 30
0.0
 11
1117.384860763445
 21
-348.2522129076517
 31
0.0
  0
LINE
  5
1C4
330
1F
100
AcDbEntity
  8
0
  6
Continuous
 62
     7
100
AcDbLine
 10
1117.884719958073
 20
-165.0462231445592
 30
0.0
 11
1124.353274844559
 21
-167.8653821531146
 31
0.0
  0
LINE
  5
1C5
330
1F
100
AcDbEntity
  8
0
  6
Continuous
 62
     7
100
AcDbLine
 10
1117.871631483921
 20
-179.1839452590765
 30
0.0
 11
1147.072211309111
 21
-179.9485893521537
 31
0.0
  0
LINE
  5
1C6
330
1F
100
AcDbEntity
  8
0
  6
Continuous
 62
     7
100
AcDbLine
 10
1131.37163148385
 20
-193.9275151971643
 30
0.0
 11
1145.160486242353
 21
-193.5664413279292
 31
0.0
  0
LINE
  5
1C7
330
1F
100
AcDbEntity
  8
0
  6
Continuous
 62
     7
100
AcDbLine
 10
1117.384719958076
 20
-171.8259118362837
 30
0.0
 11
1117.384719958073
 21
-173.1525831577921
 31
0.0
  0
LINE
  5
1C8
330
1F
100
AcDbEntity
  8
0
  6
Continuous
 62
     7
100
AcDbLine
 10
1117.384719958075
 20
-165.3153889969157
 30
0.0
 11
1117.384719958076
 21
-171.8259118362837
 31
0.0
  0
LINE
  5
1C9
330
1F
100
AcDbEntity
  8
0
  6
Continuous
 62
     7
100
AcDbLine
 10
1130.884719958076
 20
-340.5791406879741
 30
0.0
 11
1130.884719958004
 21
-194.427343859652
 31
0.0
  0
LINE
  5
1CA
330
1F
100
AcDbEntity
  8
0
  6
Continuous
 62
     7
100
AcDbLine
 10
1130.884719958076
 20
-194.3020068082593
 30
0.0
 11
1130.884719958004
 21
-194.427343859652
 31
0.0
  0
LINE
  5
1CB
330
1F
100
AcDbEntity
  8
0
  6
Continuous
 62
     7
100
AcDbLine
 10
1117.384719958076
 20
-174.0402654242176
 30
0.0
 11
1117.384719958075
 21
-178.6841165965886
 31
0.0
  0
LINE
  5
1CC
330
1F
100
AcDbEntity
  8
0
  6
Continuous
 62
     7
100
AcDbLine
 10
1117.384719958073
 20
-173.1525831577921
 30
0.0
 11
1117.384719958076
 21
-174.0402654242176
 31
0.0
  0
LINE
  5
1CD
330
1F
100
AcDbEntity
  8
0
  6
Continuous
 62
     7
100
AcDbLine
 10
1106.384719958076
 20
-171.5378666990251
 30
0.0
 11
1106.384719958075
 21
-348.5402654242109
 31
0.0
  0
LINE
  5
1CE
330
1F
100
AcDbEntity
  8
0
  6
Continuous
 62
     7
100
AcDbLine
 10
1106.384719958076
 20
-171.5378666990251
 30
0.0
 11
1106.38471995795
 21
-164.5402654241961
 31
0.0
  0
LINE
  5
1CF
330
1F
100
AcDbEntity
  8
0
  6
Continuous
 62
     7
100
AcDbLine
 10
1130.884719958047
 20
-347.0702329832692
 30
0.0
 11
1130.884719958076
 21
-340.5791406879741
 31
0.0
  0
LINE
  5
1D0
330
1F
100
AcDbEntity
  8
0
  6
Continuous
 62
     7
100
AcDbLine
 10
1117.384719957996
 20
-348.2522202869454
 30
0.0
 11
1117.384860763445
 21
-348.2522129076517
 31
0.0
  0
LINE
  5
1D1
330
1F
100
AcDbEntity
  8
0
  6
Continuous
 62
     7
100
AcDbLine
 10
1106.384719958075
 20
-348.5402654242109
 30
0.0
 11
1117.384719957996
 21
-348.2522202869454
 31
0.0
  0
LINE
  5
1D2
330
1F
100
AcDbEntity
  8
0
  6
Continuous
 62
     7
100
AcDbLine
 10
1124.353274844559
 20
-167.8653821531146
 30
0.0
 11
1148.14730863111
 21
-178.2354208826995
 31
0.0
  0
LINE
  5
1D3
330
1F
100
AcDbEntity
  8
0
  6
Continuous
 62
     7
100
AcDbLine
 10
1116.897808432228
 20
-164.815560334428
 30
0.0
 11
1106.38471995795
 21
-164.5402654241961
 31
0.0
  0
LINE
  5
1D4
330
1F
100
AcDbEntity
  8
0
  6
Continuous
 62
     7
100
AcDbLine
 10
628.3604308538964
 20
-164.8283105614864
 30
0.0
 11
443.4278226691741
 21
-164.8283105614865
 31
0.0
  0
LINE
  5
1D5
330
1F
100
AcDbEntity
  8
0
  6
Continuous
 62
     7
100
AcDbLine
 10
427.8917280363515
 20
-164.5402654241961
 30
0.0
 11
643.8965254866938
 21
-164.540265424196
 31
0.0
  0
LINE
  5
1D6
330
1F
100
AcDbEntity
  8
0
  6
Continuous
 62
     2
100
AcDbLine
 10
641.6813808346609
 20
-179.9485893521536
 30
0.0
 11
641.3941267614838
 21
-179.9485893549449
 31
0.0
  0
LINE
  5
1D7
330
1F
100
AcDbEntity
  8
0
  6
Continuous
 62
     7
100
AcDbLine
 10
624.644126761501
 20
-190.923158939695
 30
0.0
 11
624.6441267615073
 21
-178.2354208826546
 31
0.0
  0
LINE
  5
1D8
330
1F
100
AcDbEntity
  8
0
  6
Continuous
 62
     7
100
AcDbLine
 10
641.3941267614907
 20
-179.1711950320496
 30
0.0
 11
642.6148376391216
 21
-179.1711950320496
 31
0.0
  0
LINE
  5
1D9
330
1F
100
AcDbEntity
  8
0
  6
Continuous
 62
     7
100
AcDbLine
 10
552.4085685090148
 20
-174.7638180884185
 30
0.0
 11
624.6441267615091
 21
-174.7638180884185
 31
0.0
  0
LINE
  5
1DA
330
1F
100
AcDbEntity
  8
0
  6
Continuous
 62
     2
100
AcDbLine
 10
430.3941267615729
 20
-179.9485893549449
 30
0.0
 11
430.1068726883826
 21
-179.9485893521537
 31
0.0
  0
LINE
  5
1DB
330
1F
100
AcDbEntity
  8
0
  6
Continuous
 62
     7
100
AcDbLine
 10
429.1734158839237
 20
-179.1711950320496
 30
0.0
 11
430.3941267615796
 21
-179.1711950320496
 31
0.0
  0
LINE
  5
1DC
330
1F
100
AcDbEntity
  8
0
  6
Continuous
 62
     7
100
AcDbLine
 10
447.1441267615493
 20
-190.8578913917249
 30
0.0
 11
447.1441267615512
 21
-174.7638180884184
 31
0.0
  0
LINE
  5
1DD
330
1F
100
AcDbEntity
  8
0
  6
Continuous
 62
     7
100
AcDbLine
 10
447.1441267615512
 20
-174.7638180884184
 30
0.0
 11
552.4085685090148
 21
-174.7638180884185
 31
0.0
  0
LINE
  5
1DE
330
1F
100
AcDbEntity
  8
0
  6
Continuous
 62
     7
100
AcDbLine
 10
447.1441267615512
 20
-190.9231589396955
 30
0.0
 11
447.1441267615493
 21
-190.8578913917249
 31
0.0
  0
LINE
  5
1DF
330
1F
100
AcDbEntity
  8
0
  6
Continuous
 62
     7
100
AcDbLine
 10
435.5250563694257
 20
-174.0402654242036
 30
0.0
 11
435.6416808292873
 21
-174.0402654242036
 31
0.0
  0
LINE
  5
1E0
330
1F
100
AcDbEntity
  8
0
  6
Continuous
 62
     7
100
AcDbLine
 10
435.5250563694257
 20
-174.0402654242036
 30
0.0
 11
435.5250563694257
 21
-173.1525831577921
 31
0.0
  0
LINE
  5
1E1
330
1F
100
AcDbEntity
  8
0
  6
Continuous
 62
     7
100
AcDbLine
 10
643.8965254866937
 20
-348.5402654242109
 30
0.0
 11
427.8917280363515
 21
-348.5402654242109
 31
0.0
  0
LINE
  5
1E2
330
1F
100
AcDbEntity
  8
0
  6
Continuous
 62
     7
100
AcDbLine
 10
422.7158388507008
 20
-187.3116830324706
 30
0.0
 11
422.7345441695538
 21
-187.3135500636494
 31
0.0
  0
LINE
  5
1E3
330
1F
100
AcDbEntity
  8
0
  6
Continuous
 62
     7
100
AcDbLine
 10
420.8941267615224
 20
-171.537866699025
 30
0.0
 11
420.8941267615224
 21
-341.542664149382
 31
0.0
  0
ARC
  5
1E4
102
{ACAD_REACTORS
330
297
102
}
330
1F
100
AcDbEntity
  8
0
  6
Continuous
 62
     2
100
AcDbCircle
 10
620.0207407263858
 20
-214.4231599875268
 30
0.0
 40
0.1666666666664923
100
AcDbArc
 50
119.9816393689115
 51
240.018360631025
  0
ARC
  5
1E5
102
{ACAD_REACTORS
330
297
102
}
330
1F
100
AcDbEntity
  8
0
  6
Continuous
 62
     2
100
AcDbCircle
 10
620.0207407263858
 20
-214.4231599875268
 30
0.0
 40
0.0666666666661761
100
AcDbArc
 50
119.9816393689397
 51
240.01836063128
  0
ARC
  5
1E6
102
{ACAD_REACTORS
330
297
102
}
330
1F
100
AcDbEntity
  8
0
  6
Continuous
 62
     2
100
AcDbCircle
 10
636.6870371255056
 20
-214.4231599875268
 30
0.0
 40
0.1666666666661722
100
AcDbArc
 50
299.981639368975
 51
60.0183606310885
  0
ARC
  5
1E7
102
{ACAD_REACTORS
330
297
102
}
330
1F
100
AcDbEntity
  8
0
  6
Continuous
 62
     2
100
AcDbCircle
 10
636.6870371255056
 20
-214.4231599875268
 30
0.0
 40
0.0666666666666193
100
AcDbArc
 50
299.9816393687199
 51
60.01836063101477
  0
ARC
  5
1E8
330
1F
100
AcDbEntity
  8
0
  6
Continuous
 62
     7
100
AcDbCircle
 10
467.8941267615365
 20
-328.5402654241915
 30
0.0
 40
9.496888420223444
100
AcDbArc
 50
25.84623913711707
 51
154.1537608628825
  0
ARC
  5
1E9
330
1F
100
AcDbEntity
  8
0
  6
Continuous
 62
     7
100
AcDbCircle
 10
467.8941267615365
 20
-328.5402654241915
 30
0.0
 40
9.496888420223687
100
AcDbArc
 50
205.8462391371224
 51
334.1537608628839
  0
ARC
  5
1EA
330
1F
100
AcDbEntity
  8
0
  6
Continuous
 62
     7
100
AcDbCircle
 10
603.8941267615367
 20
-328.5402654241915
 30
0.0
 40
9.496888420224016
100
AcDbArc
 50
25.8462391371234
 51
154.1537608628754
  0
ARC
  5
1EB
330
1F
100
AcDbEntity
  8
0
  6
Continuous
 62
     7
100
AcDbCircle
 10
603.8941267615367
 20
-328.5402654241915
 30
0.0
 40
9.496888420223483
100
AcDbArc
 50
205.846239137123
 51
334.153760862884
  0
ARC
  5
1EC
330
1F
100
AcDbEntity
  8
0
  6
Continuous
 62
     7
100
AcDbCircle
 10
1144.884719957914
 20
-338.8000275886798
 30
0.0
 40
8.000000000000387
100
AcDbArc
 50
273.0000000000022
 51
0.0
  0
ARC
  5
1ED
330
1F
100
AcDbEntity
  8
0
  6
Continuous
 62
     7
100
AcDbCircle
 10
1144.88297902515
 20
-185.5024406076542
 30
0.0
 40
8.50000000000014
100
AcDbArc
 50
272.5107481119691
 51
317.4786346901059
  0
ARC
  5
1EE
330
1F
100
AcDbEntity
  8
0
  6
Continuous
 62
     7
100
AcDbCircle
 10
1151.884719957918
 20
-191.9231589405514
 30
0.0
 40
1.0
100
AcDbArc
 50
0.0
 51
137.4786346902882
  0
ARC
  5
1EF
330
1F
100
AcDbEntity
  8
0
  6
Continuous
 62
     7
100
AcDbCircle
 10
1144.88297902515
 20
-185.5024406076542
 30
0.0
 40
8.50000000000013
100
AcDbArc
 50
271.4999999999667
 51
272.5107481119691
  0
ARC
  5
1F0
330
1F
100
AcDbEntity
  8
0
  6
Continuous
 62
     2
100
AcDbCircle
 10
632.244126761447
 20
-256.4231372010214
 30
0.0
 40
2.099999999999994
100
AcDbArc
 50
90.0
 51
167.6263748838098
  0
ARC
  5
1F1
330
1F
100
AcDbEntity
  8
0
  6
Continuous
 62
     2
100
AcDbCircle
 10
632.244126761447
 20
-256.4231372010214
 30
0.0
 40
2.100000000000022
100
AcDbArc
 50
192.3736251161881
 51
270.0000000000062
  0
ARC
  5
1F2
330
1F
100
AcDbEntity
  8
0
  6
Continuous
 62
     2
100
AcDbCircle
 10
632.244126761447
 20
-256.4231372010214
 30
0.0
 40
2.999999999999915
100
AcDbArc
 50
90.0
 51
270.0000000000043
  0
ARC
  5
1F3
330
1F
100
AcDbEntity
  8
0
  6
Continuous
 62
     2
100
AcDbCircle
 10
626.0205555926125
 20
-216.6531388394935
 30
0.0
 40
0.6666666666667425
100
AcDbArc
 50
180.0
 51
240.0183606311506
  0
ARC
  5
1F4
330
1F
100
AcDbEntity
  8
0
  6
Continuous
 62
     2
100
AcDbCircle
 10
625.687222259279
 20
-212.0006598273596
 30
0.0
 40
0.3333333333334849
100
AcDbArc
 50
0.0
 51
180.0
  0
ARC
  5
1F5
330
1F
100
AcDbEntity
  8
0
  6
Continuous
 62
     2
100
AcDbCircle
 10
629.687222259279
 20
-217.6148909169244
 30
0.0
 40
0.3333333333332575
100
AcDbArc
 50
180.0
 51
0.0
  0
ARC
  5
1F6
330
1F
100
AcDbEntity
  8
0
  6
Continuous
 62
     2
100
AcDbCircle
 10
628.3538889259457
 20
-214.0898266541938
 30
0.0
 40
0.1666666666664665
100
AcDbArc
 50
209.9999999998178
 51
330.000000000123
  0
ARC
  5
1F7
330
1F
100
AcDbEntity
  8
0
  6
Continuous
 62
     2
100
AcDbCircle
 10
628.0205555926125
 20
-218.1918139938477
 30
0.0
 40
0.3333333333334523
100
AcDbArc
 50
240.0183606311349
 51
60.01836063113244
  0
ARC
  5
1F8
330
1F
100
AcDbEntity
  8
0
  6
Continuous
 62
     2
100
AcDbCircle
 10
626.9521884717542
 20
-211.1919426754914
 30
0.0
 40
0.2649662124751736
100
AcDbArc
 50
29.99999999985442
 51
180.0
  0
ARC
  5
1F9
330
1F
100
AcDbEntity
  8
0
  6
Continuous
 62
     2
100
AcDbCircle
 10
627.0205555926125
 20
-216.0755749148937
 30
0.0
 40
0.3333333333334849
100
AcDbArc
 50
180.0
 51
0.0
  0
ARC
  5
1FA
330
1F
100
AcDbEntity
  8
0
  6
Continuous
 62
     2
100
AcDbCircle
 10
629.7555893801373
 20
-211.1919426754914
 30
0.0
 40
0.2649662124752012
100
AcDbArc
 50
0.0
 51
150.0000000001456
  0
ARC
  5
1FB
330
1F
100
AcDbEntity
  8
0
  6
Continuous
 62
     2
100
AcDbCircle
 10
627.1441267614468
 20
-256.4231372010214
 30
0.0
 40
2.099999999999994
100
AcDbArc
 50
90.0
 51
270.0000000000062
  0
ARC
  5
1FC
330
1F
100
AcDbEntity
  8
0
  6
Continuous
 62
     2
100
AcDbCircle
 10
631.0205555926125
 20
-212.0006598273596
 30
0.0
 40
0.3333333333334523
100
AcDbArc
 50
60.01836063113488
 51
180.0
  0
ARC
  5
1FD
330
1F
100
AcDbEntity
  8
0
  6
Continuous
 62
     2
100
AcDbCircle
 10
631.0205555926125
 20
-216.8456601476944
 30
0.0
 40
0.3333333333334849
100
AcDbArc
 50
180.0
 51
299.981639368899
  0
ARC
  5
1FE
330
1F
100
AcDbEntity
  8
0
  6
Continuous
 62
     2
100
AcDbCircle
 10
632.3538889259457
 20
-216.0764293784634
 30
0.0
 40
0.3333333333327971
100
AcDbArc
 50
299.9816393688849
 51
119.981639368827
  0
ARC
  5
1FF
330
1F
100
AcDbEntity
  8
0
  6
Continuous
 62
     2
100
AcDbCircle
 10
632.3538889259457
 20
-212.7698905965894
 30
0.0
 40
0.3333333333335849
100
AcDbArc
 50
240.0183606311931
 51
60.01836063103789
  0
ARC
  5
200
330
1F
100
AcDbEntity
  8
0
  6
Continuous
 62
     2
100
AcDbCircle
 10
632.3538889259457
 20
-214.4231599875268
 30
0.0
 40
0.3333333333326038
100
AcDbArc
 50
270.0
 51
90.0
  0
ARC
  5
201
330
1F
100
AcDbEntity
  8
0
  6
Continuous
 62
     2
100
AcDbCircle
 10
627.1441267614468
 20
-256.4231372010214
 30
0.0
 40
2.999999999999915
100
AcDbArc
 50
90.0
 51
270.0000000000043
  0
ARC
  5
202
330
1F
100
AcDbEntity
  8
0
  6
Continuous
 62
     2
100
AcDbCircle
 10
624.3538889259457
 20
-212.7698905965894
 30
0.0
 40
0.3333333333332575
100
AcDbArc
 50
0.0
 51
180.0
  0
ARC
  5
203
330
1F
100
AcDbEntity
  8
0
  6
Continuous
 62
     2
100
AcDbCircle
 10
624.3538889259457
 20
-216.0764293784634
 30
0.0
 40
0.3333333333332575
100
AcDbArc
 50
180.0
 51
0.0
  0
ARC
  5
204
330
1F
100
AcDbEntity
  8
1
  6
Continuous
 62
     2
100
AcDbCircle
 10
615.7538889259456
 20
-194.6231589405124
 30
0.0
 40
0.2000000000002728
100
AcDbArc
 50
0.0
 51
180.0
  0
ARC
  5
205
330
1F
100
AcDbEntity
  8
1
  6
Continuous
 62
     2
100
AcDbCircle
 10
620.5538889259462
 20
-194.6231589405124
 30
0.0
 40
0.1999999999993634
100
AcDbArc
 50
0.0
 51
180.0
  0
ARC
  5
206
330
1F
100
AcDbEntity
  8
1
  6
Continuous
 62
     2
100
AcDbCircle
 10
625.3538889259464
 20
-194.6231589405124
 30
0.0
 40
0.1999999999993634
100
AcDbArc
 50
0.0
 51
180.0
  0
ARC
  5
207
330
1F
100
AcDbEntity
  8
1
  6
Continuous
 62
     2
100
AcDbCircle
 10
630.1538889259466
 20
-194.6231589405124
 30
0.0
 40
0.199999999999136
100
AcDbArc
 50
0.0
 51
180.0
  0
ARC
  5
208
330
1F
100
AcDbEntity
  8
1
  6
Continuous
 62
     2
100
AcDbCircle
 10
634.9538889259468
 20
-194.6231589405124
 30
0.0
 40
0.1999999999989086
100
AcDbArc
 50
0.0
 51
180.0
  0
ARC
  5
209
330
1F
100
AcDbEntity
  8
1
  6
Continuous
 62
     2
100
AcDbCircle
 10
639.753888925947
 20
-194.6231589405124
 30
0.0
 40
0.1999999999989086
100
AcDbArc
 50
0.0
 51
180.0
  0
ARC
  5
20A
330
1F
100
AcDbEntity
  8
1
  6
Continuous
 62
     2
100
AcDbCircle
 10
620.553888925946
 20
-203.2232897834026
 30
0.0
 40
0.2000000000005002
100
AcDbArc
 50
180.0
 51
0.0
  0
ARC
  5
20B
330
1F
100
AcDbEntity
  8
1
  6
Continuous
 62
     2
100
AcDbCircle
 10
625.3538889259462
 20
-203.2232897834026
 30
0.0
 40
0.2000000000005002
100
AcDbArc
 50
180.0
 51
0.0
  0
ARC
  5
20C
330
1F
100
AcDbEntity
  8
1
  6
Continuous
 62
     2
100
AcDbCircle
 10
630.1538889259464
 20
-203.2232897834026
 30
0.0
 40
0.200000000000955
100
AcDbArc
 50
180.0
 51
0.0
  0
ARC
  5
20D
330
1F
100
AcDbEntity
  8
1
  6
Continuous
 62
     2
100
AcDbCircle
 10
634.9538889259466
 20
-203.2232897834026
 30
0.0
 40
0.200000000000955
100
AcDbArc
 50
180.0
 51
0.0
  0
ARC
  5
20E
330
1F
100
AcDbEntity
  8
1
  6
Continuous
 62
     2
100
AcDbCircle
 10
634.9538889259463
 20
-278.6231372010214
 30
0.0
 40
0.1999999999993634
100
AcDbArc
 50
0.0
 51
180.0
  0
ARC
  5
20F
330
1F
100
AcDbEntity
  8
1
  6
Continuous
 62
     2
100
AcDbCircle
 10
630.1538889259471
 20
-278.6231372010214
 30
0.0
 40
0.1999999999986812
100
AcDbArc
 50
0.0
 51
180.0
  0
ARC
  5
210
330
1F
100
AcDbEntity
  8
1
  6
Continuous
 62
     2
100
AcDbCircle
 10
625.3538889259478
 20
-278.6231372010214
 30
0.0
 40
0.1999999999979991
100
AcDbArc
 50
0.0
 51
180.0
  0
ARC
  5
211
330
1F
100
AcDbEntity
  8
1
  6
Continuous
 62
     2
100
AcDbCircle
 10
620.5538889259485
 20
-278.6231372010214
 30
0.0
 40
0.199999999997317
100
AcDbArc
 50
0.0
 51
180.0
  0
ARC
  5
212
330
1F
100
AcDbEntity
  8
1
  6
Continuous
 62
     2
100
AcDbCircle
 10
639.7538889259456
 20
-336.1107897868914
 30
0.0
 40
0.1999999999998181
100
AcDbArc
 50
180.0
 51
0.0
  0
ARC
  5
213
330
1F
100
AcDbEntity
  8
1
  6
Continuous
 62
     2
100
AcDbCircle
 10
634.9538889259454
 20
-336.1107897868914
 30
0.0
 40
0.1999999999998181
100
AcDbArc
 50
180.0
 51
0.0
  0
ARC
  5
214
330
1F
100
AcDbEntity
  8
1
  6
Continuous
 62
     2
100
AcDbCircle
 10
630.1538889259452
 20
-336.1107897868914
 30
0.0
 40
0.1999999999998181
100
AcDbArc
 50
180.0
 51
0.0
  0
ARC
  5
215
330
1F
100
AcDbEntity
  8
1
  6
Continuous
 62
     2
100
AcDbCircle
 10
625.3538889259451
 20
-336.1107897868914
 30
0.0
 40
0.1999999999993634
100
AcDbArc
 50
180.0
 51
0.0
  0
ARC
  5
216
330
1F
100
AcDbEntity
  8
1
  6
Continuous
 62
     2
100
AcDbCircle
 10
620.5538889259449
 20
-336.1107897868914
 30
0.0
 40
0.1999999999993634
100
AcDbArc
 50
180.0
 51
0.0
  0
ARC
  5
217
330
1F
100
AcDbEntity
  8
1
  6
Continuous
 62
     2
100
AcDbCircle
 10
615.7538889259447
 20
-336.1107897868914
 30
0.0
 40
0.199999999999136
100
AcDbArc
 50
180.0
 51
0.0
  0
ARC
  5
218
330
1F
100
AcDbEntity
  8
1
  6
Continuous
 62
     2
100
AcDbCircle
 10
454.8343645971153
 20
-194.6231589405123
 30
0.0
 40
0.2000000000001023
100
AcDbArc
 50
0.0
 51
180.0000000000326
  0
ARC
  5
219
330
1F
100
AcDbEntity
  8
1
  6
Continuous
 62
     2
100
AcDbCircle
 10
450.0343645971154
 20
-194.6231589405123
 30
0.0
 40
0.1999999999999886
100
AcDbArc
 50
0.0
 51
180.0000000000326
  0
ARC
  5
21A
330
1F
100
AcDbEntity
  8
1
  6
Continuous
 62
     2
100
AcDbCircle
 10
445.2343645971154
 20
-194.6231589405123
 30
0.0
 40
0.2000000000001023
100
AcDbArc
 50
0.0
 51
180.0000000000326
  0
ARC
  5
21B
330
1F
100
AcDbEntity
  8
1
  6
Continuous
 62
     2
100
AcDbCircle
 10
440.4343645971155
 20
-194.6231589405123
 30
0.0
 40
0.1999999999999886
100
AcDbArc
 50
0.0
 51
180.0000000000326
  0
ARC
  5
21C
330
1F
100
AcDbEntity
  8
1
  6
Continuous
 62
     2
100
AcDbCircle
 10
435.6343645971155
 20
-194.6231589405123
 30
0.0
 40
0.2000000000001023
100
AcDbArc
 50
0.0
 51
180.0000000000326
  0
ARC
  5
21D
330
1F
100
AcDbEntity
  8
1
  6
Continuous
 62
     2
100
AcDbCircle
 10
430.8343645971156
 20
-194.6231589405123
 30
0.0
 40
0.1999999999998749
100
AcDbArc
 50
0.0
 51
180.0000000000326
  0
ARC
  5
21E
330
1F
100
AcDbEntity
  8
1
  6
Continuous
 62
     2
100
AcDbCircle
 10
454.8343645971153
 20
-336.1107897868914
 30
0.0
 40
0.2000000000001023
100
AcDbArc
 50
180.0
 51
0.0
  0
ARC
  5
21F
330
1F
100
AcDbEntity
  8
1
  6
Continuous
 62
     2
100
AcDbCircle
 10
450.0343645971154
 20
-336.1107897868914
 30
0.0
 40
0.2000000000001023
100
AcDbArc
 50
180.0
 51
0.0
  0
ARC
  5
220
330
1F
100
AcDbEntity
  8
1
  6
Continuous
 62
     2
100
AcDbCircle
 10
445.2343645971154
 20
-336.1107897868914
 30
0.0
 40
0.1999999999999886
100
AcDbArc
 50
180.0
 51
0.0
  0
ARC
  5
221
330
1F
100
AcDbEntity
  8
1
  6
Continuous
 62
     2
100
AcDbCircle
 10
440.4343645971155
 20
-336.1107897868914
 30
0.0
 40
0.2000000000001023
100
AcDbArc
 50
180.0
 51
0.0
  0
ARC
  5
222
330
1F
100
AcDbEntity
  8
1
  6
Continuous
 62
     2
100
AcDbCircle
 10
435.6343645971156
 20
-336.1107897868914
 30
0.0
 40
0.2000000000005002
100
AcDbArc
 50
180.0
 51
0.0
  0
ARC
  5
223
330
1F
100
AcDbEntity
  8
1
  6
Continuous
 62
     2
100
AcDbCircle
 10
430.8343645971156
 20
-336.1107897868914
 30
0.0
 40
0.2000000000001023
100
AcDbArc
 50
180.0
 51
0.0
  0
ARC
  5
224
330
1F
100
AcDbEntity
  8
0
  6
Continuous
 62
     7
100
AcDbCircle
 10
1144.88471995803
 20
-185.5402654241542
 30
0.0
 40
2.50000000005757
100
AcDbArc
 50
314.8815546835807
 51
333.640703709905
  0
ARC
  5
225
330
1F
100
AcDbEntity
  8
1
  6
Continuous
 62
     7
100
AcDbCircle
 10
1130.366396234461
 20
-347.0528444188562
 30
0.0
 40
0.518615314664071
100
AcDbArc
 50
274.9214205362484
 51
358.0785794637303
  0
ARC
  5
226
330
1F
100
AcDbEntity
  8
1
  6
Continuous
 62
     7
100
AcDbCircle
 10
429.0273971740737
 20
-187.3044625827881
 30
0.0
 40
8.134578201451001
100
AcDbArc
 50
88.97146416785415
 51
178.9725877183239
  0
ARC
  5
227
330
1F
100
AcDbEntity
  8
1
  6
Continuous
 62
     7
100
AcDbCircle
 10
443.8564538516401
 20
-173.1486756126712
 30
0.0
 40
8.331398398561815
100
AcDbArc
 50
92.94903729519635
 51
180.0268725418209
  0
ARC
  5
228
330
1F
100
AcDbEntity
  8
1
  6
Continuous
 62
     7
100
AcDbCircle
 10
1131.396871793178
 20
-194.4391816533808
 30
0.0
 40
0.5122886253198872
100
AcDbArc
 50
92.82408950951603
 51
178.6759104905164
  0
ARC
  5
229
330
1F
100
AcDbEntity
  8
0
  6
Continuous
 62
     7
100
AcDbCircle
 10
1144.951070655885
 20
-185.5691827281266
 30
0.0
 40
7.999999999998269
100
AcDbArc
 50
271.5000000000372
 51
312.5368325260897
  0
ARC
  5
22A
330
1F
100
AcDbEntity
  8
0
  6
Continuous
 62
     7
100
AcDbCircle
 10
1144.884719958009
 20
-185.5402654242643
 30
0.0
 40
2.500000000027305
100
AcDbArc
 50
333.6407037123789
 51
36.10256498924483
  0
ARC
  5
22B
330
1F
100
AcDbEntity
  8
0
  6
Continuous
 62
     7
100
AcDbCircle
 10
1144.884719958032
 20
-185.5402654241913
 30
0.0
 40
2.500000000030373
100
AcDbArc
 50
224.5190258004308
 51
314.8815546841473
  0
ARC
  5
22C
330
1F
100
AcDbEntity
  8
0
  6
Continuous
 62
     7
100
AcDbCircle
 10
1144.884719957995
 20
-185.5402654241976
 30
0.0
 40
2.499999999999322
100
AcDbArc
 50
36.10256498781926
 51
224.5190258009232
  0
ARC
  5
22D
330
1F
100
AcDbEntity
  8
0
  6
Continuous
 62
     7
100
AcDbCircle
 10
1144.95107065589
 20
-185.5691827281248
 30
0.0
 40
7.999999999996449
100
AcDbArc
 50
312.5368325260545
 51
349.1245400129371
  0
ARC
  5
22E
330
1F
100
AcDbEntity
  8
0
  6
Continuous
 62
     7
100
AcDbCircle
 10
1144.951070655896
 20
-185.5691827281373
 30
0.0
 40
7.999999999987288
100
AcDbArc
 50
349.1245400130167
 51
66.45121602034608
  0
ARC
  5
22F
330
1F
100
AcDbEntity
  8
0
  6
Continuous
 62
     7
100
AcDbCircle
 10
430.3941267615812
 20
-174.0402654242036
 30
0.0
 40
5.130929607844507
100
AcDbArc
 50
0.0
 51
269.9999999999823
  0
CIRCLE
  5
230
330
1F
100
AcDbEntity
  8
0
  6
Continuous
 62
     7
100
AcDbCircle
 10
467.8941267615406
 20
-328.5402654241915
 30
0.0
 40
5.5
  0
CIRCLE
  5
231
330
1F
100
AcDbEntity
  8
0
  6
Continuous
 62
     7
100
AcDbCircle
 10
603.8941267615367
 20
-328.5402654241915
 30
0.0
 40
5.499999999995907
  0
CIRCLE
  5
232
330
1F
100
AcDbEntity
  8
1
  6
Continuous
 62
     7
100
AcDbCircle
 10
603.8941267615367
 20
-328.5402654241915
 30
0.0
 40
2.199999999999818
  0
CIRCLE
  5
233
330
1F
100
AcDbEntity
  8
1
  6
Continuous
 62
     7
100
AcDbCircle
 10
467.8941267615365
 20
-328.5402654241915
 30
0.0
 40
2.199999999999818
  0
CIRCLE
  5
234
330
1F
100
AcDbEntity
  8
0
  6
Continuous
 62
     7
100
AcDbCircle
 10
641.3941267614921
 20
-174.0402654242035
 30
0.0
 40
2.200000000000045
  0
CIRCLE
  5
235
330
1F
100
AcDbEntity
  8
0
  6
Continuous
 62
     7
100
AcDbCircle
 10
430.3941267615812
 20
-174.0402654242036
 30
0.0
 40
2.199999999999761
  0
CIRCLE
  5
236
330
1F
100
AcDbEntity
  8
0
  6
Continuous
 62
     7
100
AcDbCircle
 10
641.3941267614921
 20
-174.0402654242035
 30
0.0
 40
5.012750227026459
  0
SPLINE
  5
237
330
1F
100
AcDbEntity
  8
0
  6
Continuous
 62
     2
100
AcDbSpline
210
0.0
220
0.0
230
1.0
 70
     8
 71
     3
 72
    19
 73
    15
 74
    13
 42
0.000000001
 43
0.0000000001
 44
0.00000001
 40
0.0
 40
0.0
 40
0.0
 40
0.0
 40
0.911938372791716
 40
1.80804418735955
 40
2.673083724603404
 40
3.492358658700723
 40
4.251958991477705
 40
4.939007484146408
 40
5.541891926267755
 40
6.050485548996637
 40
6.456373931429601
 40
6.75316036919162
 40
6.937239125141055
 40
7.01361922275178
 40
7.01361922275178
 40
7.01361922275178
 40
7.01361922275178
 10
1145.303407607856
 20
-339.7986571234337
 30
0.0
 10
1145.318680042099
 20
-340.1022539361937
 30
0.0
 10
1145.348959772571
 20
-340.7041766849173
 30
0.0
 10
1145.385964735582
 20
-341.5944458722254
 30
0.0
 10
1145.415864877038
 20
-342.4540761018434
 30
0.0
 10
1145.437601882724
 20
-343.2684231352662
 30
0.0
 10
1145.451072414571
 20
-344.0236595308311
 30
0.0
 10
1145.455716538439
 20
-344.7067210975051
 30
0.0
 10
1145.452616782231
 20
-345.3065923912858
 30
0.0
 10
1145.438782573023
 20
-345.8112584960457
 30
0.0
 10
1145.423596342717
 20
-346.2172856538468
 30
0.0
 10
1145.385890888097
 20
-346.5054881645916
 30
0.0
 10
1145.375179059798
 20
-346.7006837346865
 30
0.0
 10
1145.319682178138
 20
-346.7690231795218
 30
0.0
 10
1145.303407607858
 20
-346.7890638667168
 30
0.0
 11
1145.303407607856
 21
-339.7986571234337
 31
0.0
 11
1145.347889331732
 21
-340.7095100011088
 31
0.0
 11
1145.385366049418
 21
-341.6048318016852
 31
0.0
 11
1145.415198743274
 21
-342.4693567645191
 31
0.0
 11
1145.436878744512
 21
-343.2883447956625
 31
0.0
 11
1145.450036397307
 21
-344.0478311626781
 31
0.0
 11
1145.45444735189
 21
-344.7348654956618
 31
0.0
 11
1145.450036397307
 21
-345.3377338013102
 31
0.0
 11
1145.436878744513
 21
-345.8461571968735
 31
0.0
 11
1145.415198743276
 21
-346.251466161017
 31
0.0
 11
1145.385366049419
 21
-346.5467494146105
 31
0.0
 11
1145.347889331734
 21
-346.7269728424257
 31
0.0
 11
1145.303407607858
 21
-346.7890638667168
 31
0.0
  0
SPLINE
  5
238
330
1F
100
AcDbEntity
  8
0
  6
Continuous
 62
     2
100
AcDbSpline
210
0.0
220
0.0
230
1.0
 70
     8
 71
     3
 72
    13
 73
     9
 74
     7
 42
0.000000001
 43
0.0000000001
 44
0.00000001
 40
0.0
 40
0.0
 40
0.0
 40
0.0
 40
0.1281606530554043
 40
0.246487144905989
 40
0.3490126032537372
 40
0.4297806850986025
 40
0.4828907980757868
 40
0.5029568110487955
 40
0.5029568110487955
 40
0.5029568110487955
 40
0.5029568110487955
 10
1145.303407607856
 20
-194.4938008176715
 30
0.0
 10
1145.301372264883
 20
-194.4511230937559
 30
0.0
 10
1145.297457771273
 20
-194.3690424381431
 30
0.0
 10
1145.289397518484
 20
-194.2530400210146
 30
0.0
 10
1145.281789847591
 20
-194.1526013710077
 30
0.0
 10
1145.271588183222
 20
-194.0748501585955
 30
0.0
 10
1145.267935022072
 20
-194.0228247272742
 30
0.0
 10
1145.258047980408
 20
-194.0004235403475
 30
0.0
 10
1145.255336808107
 20
-193.9942807899394
 30
0.0
 11
1145.303407607856
 21
-194.4938008176715
 31
0.0
 11
1145.296820910461
 21
-194.3658095374046
 31
0.0
 11
1145.288897669841
 21
-194.2477486169386
 31
0.0
 11
1145.280212762646
 21
-194.1455916691162
 31
0.0
 11
1145.271341065525
 21
-194.0653123067804
 31
0.0
 11
1145.262857455129
 21
-194.0128841427739
 31
0.0
 11
1145.255336808107
 21
-193.9942807899394
 31
0.0
  0
SPLINE
  5
239
330
1F
100
AcDbEntity
  8
0
  6
Continuous
 62
     2
100
AcDbSpline
210
0.0
220
0.0
230
1.0
 70
     8
 71
     3
 72
    11
 73
     7
 74
     5
 42
0.000000001
 43
0.0000000001
 44
0.00000001
 40
0.0
 40
0.0
 40
0.0
 40
0.0
 40
1.156591815835953
 40
2.466443787202005
 40
3.906111320455836
 40
5.407654630330438
 40
5.407654630330438
 40
5.407654630330438
 40
5.407654630330438
 10
1150.687714930052
 20
-339.2993423560567
 30
0.0
 10
1150.304580623129
 20
-339.342332760887
 30
0.0
 10
1149.487542822952
 20
-339.4340102201319
 30
0.0
 10
1148.191003168431
 20
-339.5541637558992
 30
0.0
 10
1146.779320487075
 20
-339.6769516734493
 30
0.0
 10
1145.802230418055
 20
-339.7575236338056
 30
0.0
 10
1145.303407607856
 20
-339.7986571234337
 30
0.0
 11
1150.687714930052
 21
-339.2993423560567
 31
0.0
 11
1149.53795162923
 21
-339.4248372993748
 31
0.0
 11
1148.233997689846
 21
-339.5489997397458
 31
0.0
 11
1146.799777032073
 21
-339.6741145386628
 31
0.0
 11
1145.303407607856
 21
-339.7986571234337
 31
0.0
  0
SPLINE
  5
23A
330
1F
100
AcDbEntity
  8
0
  6
Continuous
 62
     2
100
AcDbSpline
210
0.0
220
0.0
230
1.0
 70
     8
 71
     3
 72
    11
 73
     7
 74
     5
 42
0.000000001
 43
0.0000000001
 44
0.00000001
 40
0.0
 40
0.0
 40
0.0
 40
0.0
 40
0.1916006595875537
 40
0.6340446322109159
 40
1.343450677195786
 40
2.280980348972903
 40
2.280980348972903
 40
2.280980348972903
 40
2.280980348972903
 10
1152.884719957915
 20
-338.8000275886798
 30
0.0
 10
1152.838487171058
 20
-338.8454949652044
 30
0.0
 10
1152.685493684845
 20
-338.99595552618
 30
0.0
 10
1152.21748567239
 20
-339.0585881652512
 30
0.0
 10
1151.547544872966
 20
-339.1995518408405
 30
0.0
 10
1150.999623183625
 20
-339.2631427715081
 30
0.0
 10
1150.687714930052
 20
-339.2993423560567
 30
0.0
 11
1152.884719957915
 21
-338.8000275886798
 31
0.0
 11
1152.739822592716
 21
-338.9253893373764
 31
0.0
 11
1152.315196561675
 21
-339.0496849723688
 31
0.0
 11
1151.617008332973
 21
-339.175343770803
 31
0.0
 11
1150.687714930052
 21
-339.2993423560567
 31
0.0
  0
SPLINE
  5
23B
330
1F
100
AcDbEntity
  8
0
  6
Continuous
 62
     7
100
AcDbSpline
210
0.0
220
0.0
230
1.0
 70
     8
 71
     3
 72
    47
 73
    43
 74
    41
 42
0.000000001
 43
0.0000000001
 44
0.00000001
 40
0.0
 40
0.0
 40
0.0
 40
0.0
 40
0.0345594354835278
 40
0.0690648970854423
 40
0.1914707901512469
 40
0.2971944289203641
 40
0.3924548832546684
 40
0.5270757173430164
 40
0.6429778664069818
 40
0.7580356807125102
 40
0.8295614600843434
 40
0.873404092176064
 40
0.9310345894178761
 40
0.9884293169563306
 40
1.091496079361775
 40
1.216618571844991
 40
1.321065500725822
 40
1.441063856649701
 40
1.565453467255947
 40
1.660298672080052
 40
1.767124378100591
 40
1.872904853374536
 40
2.087333468517727
 40
2.302118867288345
 40
2.491900441811388
 40
2.711701367106966
 40
2.87829209935712
 40
3.083137220986245
 40
3.226120973671491
 40
3.415586218741028
 40
3.543701490087918
 40
3.667771241131954
 40
3.764919144394628
 40
3.915648794303996
 40
4.143889200496661
 40
4.326544634060117
 40
4.447217719947659
 40
4.610115903794753
 40
4.809024920635698
 40
4.915800371929785
 40
4.991139118194411
 40
5.027203587214047
 40
5.027203587214047
 40
5.027203587214047
 40
5.027203587214047
 10
644.8833680270002
 20
-191.172671928289
 30
0.0
 10
644.8933787890738
 20
-191.1783720021089
 30
0.0
 10
644.9133846716563
 20
-191.1897632599323
 30
0.0
 10
644.9687573430815
 20
-191.2215016558978
 30
0.0
 10
645.0444863868846
 20
-191.2654269030794
 30
0.0
 10
645.1373249521389
 20
-191.3202109782968
 30
0.0
 10
645.2333099651023
 20
-191.3776698827534
 30
0.0
 10
645.3317959275143
 20
-191.4375527042332
 30
0.0
 10
645.4354540845317
 20
-191.5016238820124
 30
0.0
 10
645.5208783711907
 20
-191.5551891115235
 30
0.0
 10
645.5857518807245
 20
-191.5963113185007
 30
0.0
 10
645.6343636494842
 20
-191.6273323418905
 30
0.0
 10
645.6789275293075
 20
-191.6559400806951
 30
0.0
 10
645.7399886871814
 20
-191.6953919397418
 30
0.0
 10
645.819742455956
 20
-191.747367308186
 30
0.0
 10
645.9123015080635
 20
-191.8084169917857
 30
0.0
 10
646.0092314069321
 20
-191.8730869618877
 30
0.0
 10
646.1056317638261
 20
-191.9381080268262
 30
0.0
 10
646.1990495994631
 20
-192.0018246115486
 30
0.0
 10
646.2885539596228
 20
-192.0634837889779
 30
0.0
 10
646.372716241585
 20
-192.1219620208755
 30
0.0
 10
646.4892808124396
 20
-192.2036619027863
 30
0.0
 10
646.6346990378375
 20
-192.3068916370003
 30
0.0
 10
646.8020352686071
 20
-192.4276069144665
 30
0.0
 10
646.9700116132499
 20
-192.5504868683117
 30
0.0
 10
647.1242896072437
 20
-192.6648768443987
 30
0.0
 10
647.2819372445024
 20
-192.7831459350211
 30
0.0
 10
647.4185641632641
 20
-192.886762947032
 30
0.0
 10
647.5607693015988
 20
-192.9956386756575
 30
0.0
 10
647.6822714181335
 20
-193.0894803459046
 30
0.0
 10
647.7984378317594
 20
-193.1799137178741
 30
0.0
 10
647.8901113273
 20
-193.2517140374576
 30
0.0
 10
647.9875313431835
 20
-193.3284017556612
 30
0.0
 10
648.1119632529706
 20
-193.4269125572884
 30
0.0
 10
648.2582784890928
 20
-193.5436993327055
 30
0.0
 10
648.3963059903858
 20
-193.6548060704276
 30
0.0
 10
648.51708640226
 20
-193.7526020679816
 30
0.0
 10
648.6418058995702
 20
-193.8541420552222
 30
0.0
 10
648.7626142570166
 20
-193.9531475769873
 30
0.0
 10
648.8606223978924
 20
-194.0339274081201
 30
0.0
 10
648.9166739984518
 20
-194.0802666954667
 30
0.0
 10
648.9452476869668
 20
-194.1039839610323
 30
0.0
 10
648.954497823991
 20
-194.1116619303268
 30
0.0
 11
644.8833680270002
 21
-191.172671928289
 31
0.0
 11
644.9133921589791
 21
-191.1897864288308
 31
0.0
 11
644.9433303839589
 21
-191.2069424669032
 31
0.0
 11
645.0492135883404
 21
-191.2683586806643
 31
0.0
 11
645.1402690240877
 21
-191.3220838572581
 31
0.0
 11
645.2220058350565
 21
-191.3710087764563
 31
0.0
 11
645.3370350708167
 21
-191.4409447739815
 31
0.0
 11
645.4356274077993
 21
-191.5018780094638
 31
0.0
 11
645.5331103752535
 21
-191.5629956963458
 31
0.0
 11
645.5935216583148
 21
-191.6012894815182
 31
0.0
 11
645.6304801326712
 21
-191.6248743825847
 31
0.0
 11
645.6789783533268
 21
-191.656006308309
 31
0.0
 11
645.7271868328503
 21
-191.6871526924558
 31
0.0
 11
645.813536195604
 21
-191.7434247552297
 31
0.0
 11
645.917988238001
 21
-191.8123116839165
 31
0.0
 11
646.0048737580274
 21
-191.8702777718454
 31
0.0
 11
646.1043610803874
 21
-191.9373738082325
 31
0.0
 11
646.2071236129683
 21
-192.007464015178
 31
0.0
 11
646.285231357391
 21
-192.0612672969617
 31
0.0
 11
646.372960545521
 21
-192.1222207300614
 31
0.0
 11
646.4595837289314
 21
-192.1829326155196
 31
0.0
 11
646.6344437816857
 21
-192.3070438273743
 31
0.0
 11
646.8086463402508
 21
-192.432687116411
 31
0.0
 11
646.9618236069273
 21
-192.5447307283493
 31
0.0
 11
647.1383969508281
 21
-192.675628783911
 31
0.0
 11
647.2716589095589
 21
-192.7755973910189
 31
0.0
 11
647.4348825686443
 21
-192.8993696049413
 31
0.0
 11
647.5484143419297
 21
-192.9862884749936
 31
0.0
 11
647.6983676923064
 21
-193.1020946569163
 31
0.0
 11
647.7994626260634
 21
-193.1807924148701
 31
0.0
 11
647.8971410943011
 21
-193.2572922184838
 31
0.0
 11
647.9734754884272
 21
-193.3173819461659
 31
0.0
 11
648.0916565525697
 21
-193.4109376163099
 31
0.0
 11
648.2700452439668
 21
-193.553314432319
 31
0.0
 11
648.412334234745
 21
-193.6678432516737
 31
0.0
 11
648.5061186862084
 21
-193.7437805303649
 31
0.0
 11
648.6324473434562
 21
-193.8466245316373
 31
0.0
 11
648.7862910574822
 21
-193.9727074746281
 31
0.0
 11
648.8686888293754
 21
-194.0406162675667
 31
0.0
 11
648.9267425403903
 21
-194.0886339155138
 31
0.0
 11
648.954497823991
 21
-194.1116619303268
 31
0.0
  0
SPLINE
  5
23C
330
1F
100
AcDbEntity
  8
0
  6
Continuous
 62
     7
100
AcDbSpline
210
0.0
220
0.0
230
1.0
 70
     8
 71
     3
 72
    17
 73
    13
 74
    11
 42
0.000000001
 43
0.0000000001
 44
0.00000001
 40
0.0
 40
0.0
 40
0.0
 40
0.0
 40
0.0278016549063748
 40
0.055862973416587
 40
0.0688986656229504
 40
0.0810184936596264
 40
0.0870796766564675
 40
0.0931824724272957
 40
0.1005833145409844
 40
0.1069869994759915
 40
0.1565536053490331
 40
0.2041856349815548
 40
0.2041856349815548
 40
0.2041856349815548
 40
0.2041856349815548
 10
644.7043840488957
 20
-191.0777464611695
 30
0.0
 10
644.7128430010193
 20
-191.0815321939001
 30
0.0
 10
644.7298399046044
 20
-191.0891390310787
 30
0.0
 10
644.7505821415557
 20
-191.0990035596896
 30
0.0
 10
644.766501036876
 20
-191.1068305510623
 30
0.0
 10
644.7757959933228
 20
-191.1115085202723
 30
0.0
 10
644.783001832959
 20
-191.1151961717409
 30
0.0
 10
644.7887935062439
 20
-191.1181942076196
 30
0.0
 10
644.794670569368
 20
-191.121275450119
 30
0.0
 10
644.8133238027474
 20
-191.1311888467454
 30
0.0
 10
644.8433089421399
 20
-191.1483452508585
 30
0.0
 10
644.8710021855791
 20
-191.1651614786614
 30
0.0
 10
644.8845732096386
 20
-191.1734022494697
 30
0.0
 11
644.7043840488957
 21
-191.0777464611695
 31
0.0
 11
644.7297165395771
 21
-191.0892005848132
 31
0.0
 11
644.7550688565018
 21
-191.1012296178578
 31
0.0
 11
644.7667657058856
 21
-191.1069840064281
 31
0.0
 11
644.7775917420024
 21
-191.1124326003012
 31
0.0
 11
644.7829873469421
 21
-191.1151940106318
 31
0.0
 11
644.7884070404095
 21
-191.1179995478867
 31
0.0
 11
644.794961495799
 21
-191.1214363456735
 31
0.0
 11
644.8006152350006
 21
-191.1244434063885
 31
0.0
 11
644.8437548285547
 21
-191.1488529109238
 31
0.0
 11
644.8845732096386
 21
-191.1734022494697
 31
0.0
  0
SPLINE
  5
23D
330
1F
100
AcDbEntity
  8
0
  6
Continuous
 62
     7
100
AcDbSpline
210
0.0
220
0.0
230
1.0
 70
     8
 71
     3
 72
    11
 73
     7
 74
     5
 42
0.000000001
 43
0.0000000001
 44
0.00000001
 40
0.0
 40
0.0
 40
0.0
 40
0.0
 40
0.0267595641342483
 40
0.053827910733563
 40
0.0771907099206703
 40
0.1011539095155584
 40
0.1011539095155584
 40
0.1011539095155584
 40
0.1011539095155584
 10
644.6104776632478
 20
-191.0401951703859
 30
0.0
 10
644.6188484879287
 20
-191.0432769030687
 30
0.0
 10
644.6356867241396
 20
-191.0494759431796
 30
0.0
 10
644.6596400278818
 20
-191.0588762963213
 30
0.0
 10
644.6825937619354
 20
-191.0682649109336
 30
0.0
 10
644.6970594489892
 20
-191.07455932186
 30
0.0
 10
644.7043840488957
 20
-191.0777464611695
 30
0.0
 11
644.6104776632478
 21
-191.0401951703859
 31
0.0
 11
644.6355568409189
 21
-191.049528397188
 31
0.0
 11
644.6607641686953
 21
-191.0593917649473
 31
0.0
 11
644.682375291295
 21
-191.0682675620333
 31
0.0
 11
644.7043840488957
 21
-191.0777464611695
 31
0.0
  0
SPLINE
  5
23E
330
1F
100
AcDbEntity
  8
0
  6
Continuous
 62
     7
100
AcDbSpline
210
0.0
220
0.0
230
1.0
 70
     8
 71
     3
 72
    25
 73
    21
 74
    19
 42
0.000000001
 43
0.0000000001
 44
0.00000001
 40
0.0
 40
0.0
 40
0.0
 40
0.0
 40
0.0949632972667857
 40
0.1931865991230505
 40
0.2886138893840509
 40
0.3860842996036257
 40
0.5764942146638357
 40
0.7698157893194704
 40
0.9697851895398196
 40
1.148875157359548
 40
1.331259527615569
 40
1.520880982603632
 40
1.888849590242195
 40
2.234285411283078
 40
2.413219380648648
 40
2.571809341745957
 40
2.661518474889155
 40
2.735401648011966
 40
2.80995577719349
 40
2.895751206556596
 40
2.895751206556596
 40
2.895751206556596
 40
2.895751206556596
 10
641.1538889259457
 20
-191.9231589405124
 30
0.0
 10
641.1820153858233
 20
-191.9086363600942
 30
0.0
 10
641.23923385604
 20
-191.8790926412657
 30
0.0
 10
641.3247353342365
 20
-191.8349924179703
 30
0.0
 10
641.4110334152072
 20
-191.7906136428188
 30
0.0
 10
641.5247557509582
 20
-191.7323709681355
 30
0.0
 10
641.6677707496297
 20
-191.6597393502066
 30
0.0
 10
641.8418521162372
 20
-191.5728326472404
 30
0.0
 10
642.0133811773811
 20
-191.4892763466664
 30
0.0
 10
642.1826303125711
 20
-191.4093958808083
 30
0.0
 10
642.3498902050312
 20
-191.3334177290708
 30
0.0
 10
642.5763203488166
 20
-191.2355635737768
 30
0.0
 10
642.8566152645265
 20
-191.1254669779769
 30
0.0
 10
643.1400911171331
 20
-191.0343419025697
 30
0.0
 10
643.3611673432376
 20
-190.9796065499667
 30
0.0
 10
643.5011473945071
 20
-190.952965917316
 30
0.0
 10
643.6075215416113
 20
-190.9380077235435
 30
0.0
 10
643.6864933728859
 20
-190.9298511905524
 30
0.0
 10
643.7644086165698
 20
-190.9243485261154
 30
0.0
 10
643.8178630926482
 20
-190.9235735621469
 30
0.0
 10
643.8464640430495
 20
-190.9231589245137
 30
0.0
 11
641.1538889259457
 21
-191.9231589405124
 31
0.0
 11
641.2382713919919
 21
-191.8795971891844
 31
0.0
 11
641.3255728673196
 21
-191.834583086654
 31
0.0
 11
641.4104397150476
 21
-191.7909483999824
 31
0.0
 11
641.4971988762579
 21
-191.7465262342268
 31
0.0
 11
641.6670030449312
 21
-191.6603724180927
 31
0.0
 11
641.8400062404946
 21
-191.574098867532
 31
0.0
 11
642.0198257104015
 21
-191.4866190456667
 31
0.0
 11
642.1818191661839
 21
-191.4102558554152
 31
0.0
 11
642.3479166409035
 21
-191.3349186974782
 31
0.0
 11
642.5220302116061
 21
-191.2598137000589
 31
0.0
 11
642.8649914797157
 21
-191.1264777914721
 31
0.0
 11
643.194356206244
 21
-191.0223395037417
 31
0.0
 11
643.368126519638
 21
-190.9796634757842
 31
0.0
 11
643.5239714236268
 21
-190.9502842093639
 31
0.0
 11
643.6128177298757
 21
-190.9378720328528
 31
0.0
 11
643.6863087412096
 21
-190.930269784302
 31
0.0
 11
643.7606943263108
 21
-190.9252594032762
 31
0.0
 11
643.8464640430495
 21
-190.9231589245137
 31
0.0
  0
SPLINE
  5
23F
330
1F
100
AcDbEntity
  8
0
  6
Continuous
 62
     7
100
AcDbSpline
210
0.0
220
0.0
230
1.0
 70
     8
 71
     3
 72
    15
 73
    11
 74
     9
 42
0.000000001
 43
0.0000000001
 44
0.00000001
 40
0.0
 40
0.0
 40
0.0
 40
0.0
 40
1.371363724447465
 40
2.742051636259932
 40
4.112222344394624
 40
5.482113143115566
 40
6.852003941836168
 40
8.222174649970604
 40
9.59286256178328
 40
10.9642262862311
 40
10.9642262862311
 40
10.9642262862311
 40
10.9642262862311
 10
428.8800836624562
 20
-347.5447152665864
 30
0.0
 10
428.4222297233936
 20
-347.518733085521
 30
0.0
 10
427.5067474786476
 20
-347.4667815131046
 30
0.0
 10
426.1864658538033
 20
-347.051465346725
 30
0.0
 10
424.9699564754854
 20
-346.4057929207511
 30
0.0
 10
423.904303765273
 20
-345.5300884204879
 30
0.0
 10
423.02859926501
 20
-344.4644357102754
 30
0.0
 10
422.3829268390363
 20
-343.2479263319574
 30
0.0
 10
421.9676106726563
 20
-341.9276447071136
 30
0.0
 10
421.9156591002397
 20
-341.012162462367
 30
0.0
 10
421.8896769191744
 20
-340.5543085233045
 30
0.0
 11
428.8800836624562
 21
-347.5447152665864
 31
0.0
 11
427.5153040377477
 21
-347.4104951285543
 31
0.0
 11
426.2035251062927
 21
-347.0129760824124
 31
0.0
 11
424.9949830816205
 21
-346.367380273476
 31
0.0
 11
423.9359596371144
 21
-345.4984325486464
 31
0.0
 11
423.0670119122852
 21
-344.4394091041404
 31
0.0
 11
422.4214161033489
 21
-343.2308670794685
 31
0.0
 11
422.0238970572067
 21
-341.9190881480133
 31
0.0
 11
421.8896769191744
 21
-340.5543085233045
 31
0.0
  0
SPLINE
  5
240
330
1F
100
AcDbEntity
  8
0
  6
Continuous
 62
     7
100
AcDbSpline
210
0.0
220
0.0
230
1.0
 70
     8
 71
     3
 72
    23
 73
    19
 74
    17
 42
0.000000001
 43
0.0000000001
 44
0.00000001
 40
0.0
 40
0.0
 40
0.0
 40
0.0
 40
0.1032218767378601
 40
0.1951038245512589
 40
0.2415604055686538
 40
0.2925444941808589
 40
0.3449604828790296
 40
0.3874388695192765
 40
0.4308389967814509
 40
0.484739434961488
 40
0.5271360414611682
 40
0.5820275042006703
 40
0.6020970068398234
 40
0.6297313774004571
 40
0.6541438358630882
 40
0.6785331733229255
 40
0.735831612637614
 40
0.7768041515811559
 40
0.7768041515811559
 40
0.7768041515811559
 40
0.7768041515811559
 10
643.8464640430495
 20
-190.9231589245137
 30
0.0
 10
643.8808730008144
 20
-190.9234564801799
 30
0.0
 10
643.9459107568384
 20
-190.9240189162791
 30
0.0
 10
644.026356074198
 20
-190.9279566258419
 30
0.0
 10
644.0893025546608
 20
-190.9324815684444
 30
0.0
 10
644.1390532406921
 20
-190.9370054858605
 30
0.0
 10
644.1873828518251
 20
-190.9424013524973
 30
0.0
 10
644.2330869553884
 20
-190.9484356579093
 30
0.0
 10
644.2791586506388
 20
-190.9554041153298
 30
0.0
 10
644.325038665169
 20
-190.9633985146389
 30
0.0
 10
644.374473790949
 20
-190.9732091074204
 30
0.0
 10
644.4126534670202
 20
-190.9817597956192
 30
0.0
 10
644.4458683579403
 20
-190.9899044112897
 30
0.0
 10
644.4691410150436
 20
-190.9959286071107
 30
0.0
 10
644.4937143198011
 20
-191.0026642780751
 30
0.0
 10
644.5276838389642
 20
-191.0125074135784
 30
0.0
 10
644.5667203142077
 20
-191.0247095425718
 30
0.0
 10
644.597602022797
 20
-191.0356385048551
 30
0.0
 10
644.6104776632478
 20
-191.0401951703859
 30
0.0
 11
643.8464640430495
 21
-190.9231589245137
 31
0.0
 11
643.9496731194981
 21
-190.9247843839306
 31
0.0
 11
644.0414507776604
 21
-190.9291608743758
 31
0.0
 11
644.0877862905234
 21
-190.9325126121545
 31
0.0
 11
644.138560569246
 21
-190.937133207018
 31
0.0
 11
644.1906515384562
 21
-190.942961310946
 31
0.0
 11
644.232763844549
 21
-190.9485261122268
 31
0.0
 11
644.275674878146
 21
-190.9550233621595
 31
0.0
 11
644.3287731198661
 21
-190.9642880261943
 31
0.0
 11
644.3703577961375
 21
-190.9725455666548
 31
0.0
 11
644.423918461621
 21
-190.9845592200338
 31
0.0
 11
644.4434105045372
 21
-190.9893388863781
 31
0.0
 11
644.4701628283353
 21
-190.9962650419932
 31
0.0
 11
644.4937055907859
 21
-191.0027230978238
 31
0.0
 11
644.5171335663524
 21
-191.0095031984567
 31
0.0
 11
644.5717824413503
 21
-191.0267256186507
 31
0.0
 11
644.6104776632478
 21
-191.0401951703859
 31
0.0
  0
SPLINE
  5
241
330
1F
100
AcDbEntity
  8
0
  6
Continuous
 62
     2
100
AcDbSpline
210
0.0
220
0.0
230
1.0
 70
     8
 71
     3
 72
    15
 73
    11
 74
     9
 42
0.000000001
 43
0.0000000001
 44
0.00000001
 40
0.0
 40
0.0
 40
0.0
 40
0.0
 40
0.256976869084564
 40
0.7717995057747191
 40
1.550263014912355
 40
2.548052091820036
 40
3.754691461486674
 40
5.102702901969877
 40
6.565877716642987
 40
8.077659805172312
 40
8.077659805172312
 40
8.077659805172312
 40
8.077659805172312
 10
429.6357350623625
 20
-346.7890638666773
 30
0.0
 10
429.6811055419626
 20
-346.7157553204087
 30
0.0
 10
429.8173704058469
 20
-346.4955818178555
 30
0.0
 10
429.8978680736955
 20
-345.9745024401424
 30
0.0
 10
430.0304040944186
 20
-345.2273916381975
 30
0.0
 10
430.144681910496
 20
-344.2372439734239
 30
0.0
 10
430.2679521790664
 20
-343.0603519328047
 30
0.0
 10
430.3894202810608
 20
-341.7262970431789
 30
0.0
 10
430.5118781360749
 20
-340.2906014287093
 30
0.0
 10
430.5930934513413
 20
-339.3022682662105
 30
0.0
 10
430.6343645971152
 20
-338.8000275886403
 30
0.0
 11
429.6357350623625
 21
-346.7890638666773
 31
0.0
 11
429.7611828828993
 21
-346.5647873512696
 31
0.0
 11
429.8853924460506
 21
-346.0651731690983
 31
0.0
 11
430.0110506492611
 21
-345.2969183606768
 31
0.0
 11
430.1350498297384
 21
-344.3068641980243
 31
0.0
 11
430.260500149225
 21
-343.1067638748919
 31
0.0
 11
430.3847072134269
 21
-341.7644869106474
 31
0.0
 11
430.5097617193634
 21
-340.306665965284
 31
0.0
 11
430.6343645971152
 21
-338.8000275886403
 31
0.0
  0
SPLINE
  5
242
330
1F
100
AcDbEntity
  8
0
  6
Continuous
 62
     7
100
AcDbSpline
210
0.0
220
0.0
230
1.0
 70
     8
 71
     3
 72
    15
 73
    11
 74
     9
 42
0.000000001
 43
0.0000000001
 44
0.00000001
 40
0.0
 40
0.0
 40
0.0
 40
0.0
 40
1.371363724447883
 40
2.742051636260487
 40
4.112222344394978
 40
5.48211314311558
 40
6.852003941836398
 40
8.222174649971215
 40
9.592862561783612
 40
10.96422628623137
 40
10.96422628623137
 40
10.96422628623137
 40
10.96422628623137
 10
649.898576603897
 20
-340.5543085233045
 30
0.0
 10
649.8725944228318
 20
-341.0121624623671
 30
0.0
 10
649.820642850415
 20
-341.9276447071135
 30
0.0
 10
649.4053266840351
 20
-343.2479263319575
 30
0.0
 10
648.7596542580611
 20
-344.4644357102755
 30
0.0
 10
647.8839497577984
 20
-345.5300884204879
 30
0.0
 10
646.8182970475858
 20
-346.405792920751
 30
0.0
 10
645.601787669268
 20
-347.0514653467251
 30
0.0
 10
644.2815060444237
 20
-347.4667815131046
 30
0.0
 10
643.3660237996775
 20
-347.518733085521
 30
0.0
 10
642.9081698606149
 20
-347.5447152665864
 30
0.0
 11
649.898576603897
 21
-340.5543085233045
 31
0.0
 11
649.7643564658647
 21
-341.9190881480133
 31
0.0
 11
649.3668374197225
 21
-343.2308670794685
 31
0.0
 11
648.7212416107861
 21
-344.4394091041404
 31
0.0
 11
647.8522938859569
 21
-345.4984325486464
 31
0.0
 11
646.7932704414509
 21
-346.3673802734759
 31
0.0
 11
645.5847284167786
 21
-347.0129760824124
 31
0.0
 11
644.2729494853236
 21
-347.4104951285542
 31
0.0
 11
642.9081698606149
 21
-347.5447152665864
 31
0.0
  0
SPLINE
  5
243
330
1F
100
AcDbEntity
  8
0
  6
Continuous
 62
     7
100
AcDbSpline
210
0.0
220
0.0
230
1.0
 70
     8
 71
     3
 72
     9
 73
     5
 74
     3
 42
0.000000001
 43
0.0000000001
 44
0.00000001
 40
0.0
 40
0.0
 40
0.0
 40
0.0
 40
0.2795425745637973
 40
0.556788296592536
 40
0.556788296592536
 40
0.556788296592536
 40
0.556788296592536
 10
649.6062663548257
 20
-194.4227809312754
 30
0.0
 10
649.6864466753658
 20
-194.4778319228481
 30
0.0
 10
649.8461485032308
 20
-194.5874815935405
 30
0.0
 10
649.8811487033723
 20
-194.7779346040633
 30
0.0
 10
649.8985766038966
 20
-194.8727682866956
 30
0.0
 11
649.6062663548257
 21
-194.4227809312754
 31
0.0
 11
649.8153741647355
 21
-194.6083017557684
 31
0.0
 11
649.8985766038966
 21
-194.8727682866956
 31
0.0
  0
SPLINE
  5
244
330
1F
100
AcDbEntity
  8
0
  6
Continuous
 62
     2
100
AcDbSpline
210
0.0
220
0.0
230
1.0
 70
     8
 71
     3
 72
    11
 73
     7
 74
     5
 42
0.000000001
 43
0.0000000001
 44
0.00000001
 40
0.0
 40
0.0
 40
0.0
 40
0.0
 40
0.2569768670244248
 40
0.771799499972209
 40
1.550263008545417
 40
2.548052088948199
 40
2.548052088948199
 40
2.548052088948199
 40
2.548052088948199
 10
649.1429252039841
 20
-339.7986571233954
 30
0.0
 10
649.0696164470573
 20
-339.7532854726119
 30
0.0
 10
648.8494422921673
 20
-339.617017127958
 30
0.0
 10
648.3283731457036
 20
-339.5365760162297
 30
0.0
 10
647.5811921708469
 20
-339.4036508433471
 30
0.0
 10
646.9918061995511
 20
-339.3368608535563
 30
0.0
 10
646.6607255353249
 20
-339.2993423560184
 30
0.0
 11
649.1429252039841
 21
-339.7986571233954
 31
0.0
 11
648.9186486877087
 21
-339.6732093025646
 31
0.0
 11
648.4190345064087
 21
-339.5489997397063
 31
0.0
 11
647.6507796985304
 21
-339.4233415365726
 31
0.0
 11
646.6607255353249
 21
-339.2993423560184
 31
0.0
  0
SPLINE
  5
245
330
1F
100
AcDbEntity
  8
0
  6
Continuous
 62
     2
100
AcDbSpline
210
0.0
220
0.0
230
1.0
 70
     8
 71
     3
 72
    15
 73
    11
 74
     9
 42
0.000000001
 43
0.0000000001
 44
0.00000001
 40
0.0
 40
0.0
 40
0.0
 40
0.0
 40
0.2569768699780702
 40
0.7717995057655183
 40
1.550263018280242
 40
2.548052091812022
 40
3.754691456670493
 40
5.102702901960773
 40
6.565877729505035
 40
8.077659805163652
 40
8.077659805163652
 40
8.077659805163652
 40
8.077659805163652
 10
642.1525184607019
 20
-346.7890638666773
 30
0.0
 10
642.1071479809816
 20
-346.7157553201302
 30
0.0
 10
641.9708831172103
 20
-346.4955818175081
 30
0.0
 10
641.8903854491124
 20
-345.9745024387409
 30
0.0
 10
641.7578494285343
 20
-345.2273916370638
 30
0.0
 10
641.6435716126143
 20
-344.2372439739052
 30
0.0
 10
641.5203013441503
 20
-343.0603519343991
 30
0.0
 10
641.3988332417575
 20
-341.7262970405018
 30
0.0
 10
641.276375386617
 20
-340.290601424435
 30
0.0
 10
641.1951600713625
 20
-339.302268261935
 30
0.0
 10
641.1538889259461
 20
-338.8000275886403
 30
0.0
 11
642.1525184607019
 21
-346.7890638666773
 31
0.0
 11
642.0270706398614
 21
-346.5647873504157
 31
0.0
 11
641.902861077017
 21
-346.0651731690983
 31
0.0
 11
641.7772028733332
 21
-345.2969183573323
 31
0.0
 11
641.6532036933168
 21
-344.3068641980243
 31
0.0
 11
641.527753374306
 21
-343.1067638796765
 31
0.0
 11
641.4035463096395
 21
-341.7644869106474
 31
0.0
 11
641.2784918026134
 21
-340.306665952459
 31
0.0
 11
641.1538889259461
 21
-338.8000275886403
 31
0.0
  0
SPLINE
  5
246
330
1F
100
AcDbEntity
  8
0
  6
Continuous
 62
     2
100
AcDbSpline
210
0.0
220
0.0
230
1.0
 70
     8
 71
     3
 72
    11
 73
     7
 74
     5
 42
0.000000001
 43
0.0000000001
 44
0.00000001
 40
0.0
 40
0.0
 40
0.0
 40
0.0
 40
1.206639369929281
 40
2.554650809689485
 40
4.017825622737119
 40
5.529607710297704
 40
5.529607710297704
 40
5.529607710297704
 40
5.529607710297704
 10
646.6607255353249
 20
-339.2993423560184
 30
0.0
 10
646.2607969185653
 20
-339.2564754340013
 30
0.0
 10
645.4140833171232
 20
-339.1657192385589
 30
0.0
 10
644.080198054058
 20
-339.0451920010447
 30
0.0
 10
642.6444521095937
 20
-338.9224549893448
 30
0.0
 10
641.6561260137811
 20
-338.8412788246458
 30
0.0
 10
641.1538889259461
 20
-338.8000275886403
 30
0.0
 11
646.6607255353249
 21
-339.2993423560184
 31
0.0
 11
645.4606252117591
 21
-339.1738920364884
 31
0.0
 11
644.1183482479562
 21
-339.0496849723294
 31
0.0
 11
642.6605273035764
 21
-338.9246304664761
 31
0.0
 11
641.1538889259461
 21
-338.8000275886403
 31
0.0
  0
SPLINE
  5
247
330
1F
100
AcDbEntity
  8
0
  6
Continuous
 62
     2
100
AcDbSpline
210
0.0
220
0.0
230
1.0
 70
     8
 71
     3
 72
    15
 73
    11
 74
     9
 42
0.000000001
 43
0.0000000001
 44
0.00000001
 40
0.0
 40
0.0
 40
0.0
 40
0.0
 40
0.2569768691411938
 40
0.7717995057734096
 40
1.550263014875307
 40
2.548052091818178
 40
3.754691461470944
 40
5.102702901968079
 40
6.56587771670267
 40
8.077659805170008
 40
8.077659805170008
 40
8.077659805170008
 40
8.077659805170008
 10
422.6453283190804
 20
-339.7986571233954
 30
0.0
 10
422.7186368653665
 20
-339.7532866437879
 30
0.0
 10
422.9388103679243
 20
-339.617021779911
 30
0.0
 10
423.4598897456195
 20
-339.5365241120579
 30
0.0
 10
424.2070005475479
 20
-339.4039880913404
 30
0.0
 10
425.1971482123157
 20
-339.2897102752625
 30
0.0
 10
426.3740402529469
 20
-339.1664400066901
 30
0.0
 10
427.7080951425929
 20
-339.0449719046942
 30
0.0
 10
429.1437907570671
 20
-338.9225140496791
 30
0.0
 10
430.1321239195655
 20
-338.8412987344125
 30
0.0
 10
430.6343645971152
 20
-338.8000275886403
 30
0.0
 11
422.6453283190804
 21
-339.7986571233954
 31
0.0
 11
422.8696048345423
 21
-339.6732093028395
 31
0.0
 11
423.3692190166584
 21
-339.5489997397063
 31
0.0
 11
424.1374738250444
 21
-339.4233415365007
 31
0.0
 11
425.1275279877318
 21
-339.2993423560184
 31
0.0
 11
426.3276283108503
 21
-339.1738920365326
 31
0.0
 11
427.6699052751087
 21
-339.0496849723294
 31
0.0
 11
429.1277262205334
 21
-338.9246304663872
 31
0.0
 11
430.6343645971152
 21
-338.8000275886403
 31
0.0
  0
SPLINE
  5
248
330
1F
100
AcDbEntity
  8
0
  6
Continuous
 62
     7
100
AcDbSpline
210
0.0
220
0.0
230
1.0
 70
     8
 71
     3
 72
    47
 73
    43
 74
    41
 42
0.000000001
 43
0.0000000001
 44
0.00000001
 40
0.0
 40
0.0
 40
0.0
 40
0.0
 40
0.0360644669194699
 40
0.1114032136424043
 40
0.2181786677210979
 40
0.4170876847393873
 40
0.5799858695646769
 40
0.7006589576129384
 40
0.8833143881604233
 40
1.111554793934265
 40
1.262284442372624
 40
1.359432344657953
 40
1.483502095495788
 40
1.611617370674257
 40
1.8010826145251
 40
1.944066368773322
 40
2.148911490685435
 40
2.315502223159886
 40
2.535303146606845
 40
2.725084723684516
 40
2.939870121524913
 40
3.154298744055036
 40
3.26007922451004
 40
3.366904929026962
 40
3.461750136685374
 40
3.58613974918267
 40
3.706138114263513
 40
3.81058503892529
 40
3.935707529737817
 40
4.038774298053252
 40
4.09616942665244
 40
4.153799524399902
 40
4.197642168456078
 40
4.269167936871209
 40
4.384225742113332
 40
4.500127900141967
 40
4.63474873224993
 40
4.730009184725068
 40
4.835732804299793
 40
4.958138709947569
 40
4.992644325996558
 40
5.027203572930056
 40
5.027203572930056
 40
5.027203572930056
 40
5.027203572930056
 10
422.8337556990761
 20
-194.1116619303245
 30
0.0
 10
422.8430058355616
 20
-194.1039839614769
 30
0.0
 10
422.8715795236546
 20
-194.0802666962601
 30
0.0
 10
422.9276311245058
 20
-194.0339274086684
 30
0.0
 10
423.0256392662612
 20
-193.9531475768104
 30
0.0
 10
423.1464476247251
 20
-193.8541420542149
 30
0.0
 10
423.2711671228963
 20
-193.7526020662808
 30
0.0
 10
423.3919475348085
 20
-193.6548060687087
 30
0.0
 10
423.5299750357765
 20
-193.5436993312603
 30
0.0
 10
423.6762902706241
 20
-193.4269125568674
 30
0.0
 10
423.8007221796621
 20
-193.3284017558339
 30
0.0
 10
423.8981421948494
 20
-193.251714038176
 30
0.0
 10
423.9898156910814
 20
-193.1799137180448
 30
0.0
 10
424.1059821053412
 20
-193.0894803455829
 30
0.0
 10
424.2274842229813
 20
-192.9956386744898
 30
0.0
 10
424.3696893614871
 20
-192.886762945744
 30
0.0
 10
424.5063162808061
 20
-192.7831459333257
 30
0.0
 10
424.6639639177173
 20
-192.6648768429853
 30
0.0
 10
424.8182419119674
 20
-192.5504868667234
 30
0.0
 10
424.9862182565595
 20
-192.4276069129353
 30
0.0
 10
425.1535544897789
 20
-192.3068916337308
 30
0.0
 10
425.2989727183644
 20
-192.2036618973049
 30
0.0
 10
425.4155372922788
 20
-192.1219620133342
 30
0.0
 10
425.4996995760563
 20
-192.0634837802452
 30
0.0
 10
425.5892039371401
 20
-192.0018246022642
 30
0.0
 10
425.6826217766471
 20
-191.9381080150034
 30
0.0
 10
425.7790221354939
 20
-191.8730869488894
 30
0.0
 10
425.8759520353443
 20
-191.8084169782963
 30
0.0
 10
425.9685110875233
 20
-191.7473672947926
 30
0.0
 10
426.0482649695459
 20
-191.6953918526802
 30
0.0
 10
426.1093261299584
 20
-191.6559399929678
 30
0.0
 10
426.1538900139229
 20
-191.6273322522672
 30
0.0
 10
426.2025016707704
 20
-191.596311300426
 30
0.0
 10
426.2673751781103
 20
-191.5551890950033
 30
0.0
 10
426.3527994617237
 20
-191.501623867572
 30
0.0
 10
426.4564576182454
 20
-191.4375526903098
 30
0.0
 10
426.5549435822212
 20
-191.3776698681125
 30
0.0
 10
426.6509285886933
 20
-191.3202109677606
 30
0.0
 10
426.7437671515759
 20
-191.2654268940821
 30
0.0
 10
426.819496238042
 20
-191.2215016222357
 30
0.0
 10
426.8748689034523
 20
-191.1897632302024
 30
0.0
 10
426.8948747761802
 20
-191.178371978046
 30
0.0
 10
426.904885483649
 20
-191.1726719353458
 30
0.0
 11
422.8337556990761
 21
-194.1116619303245
 31
0.0
 11
422.8615109810598
 21
-194.0886339168516
 31
0.0
 11
422.9195646924256
 21
-194.0406162686097
 31
0.0
 11
423.0019624664673
 21
-193.9727074738998
 31
0.0
 11
423.1558061806331
 21
-193.8466245307998
 31
0.0
 11
423.2821348386429
 21
-193.743780528914
 31
0.0
 11
423.3759192917905
 21
-193.6678432488691
 31
0.0
 11
423.5182082802255
 21
-193.5533144314134
 31
0.0
 11
423.696596971299
 21
-193.41093761567
 31
0.0
 11
423.8147780342886
 21
-193.3173819464396
 31
0.0
 11
423.8911124276455
 21
-193.2572922193606
 31
0.0
 11
423.9887908957182
 21
-193.1807924158705
 31
0.0
 11
424.0898858324991
 21
-193.1020946555636
 31
0.0
 11
424.2398391819157
 21
-192.9862884743917
 31
0.0
 11
424.3533709564463
 21
-192.8993696033947
 31
0.0
 11
424.5165946157662
 21
-192.7755973893132
 31
0.0
 11
424.6498565746849
 21
-192.675628782082
 31
0.0
 11
424.826429917109
 21
-192.5447307276323
 31
0.0
 11
424.9796071858563
 21
-192.432687114198
 31
0.0
 11
425.1538097436811
 21
-192.307043825725
 31
0.0
 11
425.3286698024887
 21
-192.1829326096365
 31
0.0
 11
425.4152929901715
 21
-192.1222207212469
 31
0.0
 11
425.5030221771013
 21
-192.061267289055
 31
0.0
 11
425.5811299238923
 21
-192.007464005713
 31
0.0
 11
425.6838924580877
 21
-191.9373737977787
 31
0.0
 11
425.7833797881078
 21
-191.8702777563727
 31
0.0
 11
425.8702653046922
 21
-191.8123116708869
 31
0.0
 11
425.9747173457683
 21
-191.7434247432317
 31
0.0
 11
426.0610667135414
 21
-191.6871526773355
 31
0.0
 11
426.1092755302931
 21
-191.6560060761005
 31
0.0
 11
426.1577734151284
 21
-191.6248743667577
 31
0.0
 11
426.1947318996156
 21
-191.6012894593253
 31
0.0
 11
426.2551431734938
 21
-191.5629956801311
 31
0.0
 11
426.3526261333545
 21
-191.5018779981999
 31
0.0
 11
426.451218478053
 21
-191.4409447581502
 31
0.0
 11
426.566247712242
 21
-191.3710087618528
 31
0.0
 11
426.6479845216978
 21
-191.3220838437471
 31
0.0
 11
426.7390399409716
 21
-191.268358677005
 31
0.0
 11
426.8449231562917
 21
-191.2069424570261
 31
0.0
 11
426.874861515387
 21
-191.1897863423573
 31
0.0
 11
426.904885483649
 21
-191.1726719353458
 31
0.0
  0
SPLINE
  5
249
330
1F
100
AcDbEntity
  8
0
  6
Continuous
 62
     7
100
AcDbSpline
210
0.0
220
0.0
230
1.0
 70
     8
 71
     3
 72
    15
 73
    11
 74
     9
 42
0.000000001
 43
0.0000000001
 44
0.00000001
 40
0.0
 40
0.0
 40
0.0
 40
0.0
 40
0.0259683439188843
 40
0.052618695837089
 40
0.0655525600173034
 40
0.0785985022107272
 40
0.0933280942533035
 40
0.1030143797922276
 40
0.1459924579292003
 40
0.204184482729847
 40
0.204184482729847
 40
0.204184482729847
 40
0.204184482729847
 10
426.9036803134229
 20
-191.17340224947
 30
0.0
 10
426.9110806829407
 20
-191.168911966703
 30
0.0
 10
426.9260757859858
 20
-191.1598134853737
 30
0.0
 10
426.9448346245836
 20
-191.1486067269674
 30
0.0
 10
426.9600038900362
 20
-191.1397935024983
 30
0.0
 10
426.9718038155584
 20
-191.1330922716829
 30
0.0
 10
426.9827368633528
 20
-191.1270577638176
 30
0.0
 10
427.002552213355
 20
-191.1164742102794
 30
0.0
 10
427.0354915017981
 20
-191.0997024998071
 30
0.0
 10
427.0662039689391
 20
-191.085763834221
 30
0.0
 10
427.083869474166
 20
-191.0777464611692
 30
0.0
 11
426.9036803134229
 21
-191.17340224947
 31
0.0
 11
426.9258966515824
 21
-191.1599564615171
 31
0.0
 11
426.9487967394998
 21
-191.1463246151231
 31
0.0
 11
426.9599821010587
 21
-191.1398305770175
 31
0.0
 11
426.971327971023
 21
-191.1333910239177
 31
0.0
 11
426.9842280728579
 21
-191.1262812941995
 31
0.0
 11
426.9927692116731
 21
-191.1217125880059
 31
0.0
 11
427.0310884425663
 21
-191.1022510421449
 31
0.0
 11
427.083869474166
 21
-191.0777464611692
 31
0.0
  0
SPLINE
  5
24A
330
1F
100
AcDbEntity
  8
0
  6
Continuous
 62
     7
100
AcDbSpline
210
0.0
220
0.0
230
1.0
 70
     8
 71
     3
 72
    11
 73
     7
 74
     5
 42
0.000000001
 43
0.0000000001
 44
0.00000001
 40
0.0
 40
0.0
 40
0.0
 40
0.0
 40
0.0239631984893608
 40
0.0473259987866102
 40
0.0754352696776465
 40
0.1011539029220398
 40
0.1011539029220398
 40
0.1011539029220398
 40
0.1011539029220398
 10
427.083869474166
 20
-191.0777464611692
 30
0.0
 10
427.0911940792533
 20
-191.0745593340074
 30
0.0
 10
427.105659777211
 20
-191.0682649467917
 30
0.0
 10
427.1289345938971
 20
-191.0587447807287
 30
0.0
 10
427.152891095717
 20
-191.0493522891998
 30
0.0
 10
427.169730226628
 20
-191.0431558046727
 30
0.0
 10
427.1777758598137
 20
-191.0401951703859
 30
0.0
 11
427.083869474166
 21
-191.0777464611692
 31
0.0
 11
427.1058782307435
 21
-191.0682675624632
 31
0.0
 11
427.1274893543646
 21
-191.0593917649478
 31
0.0
 11
427.1536694119914
 21
-191.0491577186737
 31
0.0
 11
427.1777758598137
 21
-191.0401951703859
 31
0.0
  0
SPLINE
  5
24B
330
1F
100
AcDbEntity
  8
0
  6
Continuous
 62
     7
100
AcDbSpline
210
0.0
220
0.0
230
1.0
 70
     8
 71
     3
 72
    25
 73
    21
 74
    19
 42
0.000000001
 43
0.0000000001
 44
0.00000001
 40
0.0
 40
0.0
 40
0.0
 40
0.0
 40
0.0857954293336998
 40
0.1603495585431022
 40
0.2342327317660924
 40
0.3239418648095376
 40
0.4825318279234069
 40
0.6614657952723599
 40
1.006901616504922
 40
1.374870223951524
 40
1.564491678799676
 40
1.746876049195202
 40
1.925966017659979
 40
2.125935417235022
 40
2.319256991813287
 40
2.509666906951018
 40
2.607137317166742
 40
2.702564607431623
 40
2.800787909282882
 40
2.895751206554683
 40
2.895751206554683
 40
2.895751206554683
 40
2.895751206554683
 10
427.9417894800133
 20
-190.9231589245135
 30
0.0
 10
427.9703904304048
 20
-190.9235735621465
 30
0.0
 10
428.0238449064827
 20
-190.9243485261151
 30
0.0
 10
428.1017601501996
 20
-190.9298511905537
 30
0.0
 10
428.1807319814834
 20
-190.9380077235476
 30
0.0
 10
428.2871061292529
 20
-190.9529659174163
 30
0.0
 10
428.4270861804814
 20
-190.9796065501153
 30
0.0
 10
428.6481624066311
 20
-191.0343419027907
 30
0.0
 10
428.9316382585953
 20
-191.1254669779995
 30
0.0
 10
429.2119331742604
 20
-191.2355635737846
 30
0.0
 10
429.4383633179876
 20
-191.3334177290519
 30
0.0
 10
429.6056232106438
 20
-191.4093958808772
 30
0.0
 10
429.7748723458734
 20
-191.4892763467598
 30
0.0
 10
429.9464014069931
 20
-191.5728326473248
 30
0.0
 10
430.1204827734081
 20
-191.6597393501948
 30
0.0
 10
430.2634977720786
 20
-191.732370968123
 30
0.0
 10
430.3772201078525
 20
-191.7906136428179
 30
0.0
 10
430.4635181888218
 20
-191.8349924179692
 30
0.0
 10
430.5490196670189
 20
-191.8790926412655
 30
0.0
 10
430.6062381372361
 20
-191.9086363600935
 30
0.0
 10
430.6343645971152
 20
-191.9231589405124
 30
0.0
 11
427.9417894800133
 21
-190.9231589245135
 31
0.0
 11
428.0275591967226
 21
-190.9252594032749
 31
0.0
 11
428.1019447818517
 21
-190.930269784302
 31
0.0
 11
428.1754357932851
 21
-190.9378720328648
 31
0.0
 11
428.2642820994349
 21
-190.9502842093641
 31
0.0
 11
428.4201270053951
 21
-190.9796634762122
 31
0.0
 11
428.5938973168176
 21
-191.0223395037417
 31
0.0
 11
428.9232620435266
 21
-191.1264777915364
 31
0.0
 11
429.2662233114554
 21
-191.2598137000587
 31
0.0
 11
429.44033688203
 21
-191.3349186974215
 31
0.0
 11
429.6064343568772
 21
-191.410255855415
 31
0.0
 11
429.7684278132413
 21
-191.4866190459453
 31
0.0
 11
429.9482472825662
 21
-191.5740988675318
 31
0.0
 11
430.1212504780605
 21
-191.6603724180578
 31
0.0
 11
430.2910546468031
 21
-191.7465262342266
 31
0.0
 11
430.3778138080099
 21
-191.7909483999805
 31
0.0
 11
430.4626806557413
 21
-191.8345830866542
 31
0.0
 11
430.5499821310643
 21
-191.8795971891824
 31
0.0
 11
430.6343645971152
 21
-191.9231589405124
 31
0.0
  0
SPLINE
  5
24C
330
1F
100
AcDbEntity
  8
0
  6
Continuous
 62
     7
100
AcDbSpline
210
0.0
220
0.0
230
1.0
 70
     8
 71
     3
 72
    23
 73
    19
 74
    17
 42
0.000000001
 43
0.0000000001
 44
0.00000001
 40
0.0
 40
0.0
 40
0.0
 40
0.0
 40
0.0514265485982446
 40
0.0983519505586905
 40
0.1223712093436172
 40
0.1464122903114265
 40
0.1748134306441919
 40
0.1953866220723084
 40
0.2502721760203406
 40
0.2924766020751041
 40
0.3462192510275998
 40
0.389785749848438
 40
0.4320928938360456
 40
0.4843666904660685
 40
0.5354172839945923
 40
0.5820089327828925
 40
0.6737345055566568
 40
0.7768043359499651
 40
0.7768043359499651
 40
0.7768043359499651
 40
0.7768043359499651
 10
427.1777758598137
 20
-191.0401951703859
 30
0.0
 10
427.1939471590088
 20
-191.0345038069099
 30
0.0
 10
427.2248743571537
 20
-191.0236192342693
 30
0.0
 10
427.263850473276
 20
-191.0115590832231
 30
0.0
 10
427.2942608363129
 20
-191.0027444031748
 30
0.0
 10
427.3188404525683
 20
-190.9960000361957
 30
0.0
 10
427.342402398869
 20
-190.9898971673396
 30
0.0
 10
427.376028321823
 20
-190.9816587431343
 30
0.0
 10
427.4143100778729
 20
-190.9730977331001
 30
0.0
 10
427.4636312729398
 20
-190.9633226731654
 30
0.0
 10
427.5094521874553
 20
-190.9553458971754
 30
0.0
 10
427.5554713604848
 20
-190.9483925770084
 30
0.0
 10
427.6011276982548
 20
-190.9423712356961
 30
0.0
 10
427.6493758679603
 20
-190.9369879829639
 30
0.0
 10
427.6991465258486
 20
-190.932465010573
 30
0.0
 10
427.7621084584013
 20
-190.9279446566833
 30
0.0
 10
427.8424962760942
 20
-190.9240163280887
 30
0.0
 10
427.9074312113832
 20
-190.9234556056006
 30
0.0
 10
427.9417894800133
 20
-190.9231589245135
 30
0.0
 11
427.1777758598137
 21
-191.0401951703859
 31
0.0
 11
427.2263987424694
 21
-191.0234468786887
 31
0.0
 11
427.271197453942
 21
-191.0094801725591
 31
0.0
 11
427.2942695369209
 21
-191.002801565045
 31
0.0
 11
427.3174524519624
 21
-190.9964355582758
 31
0.0
 11
427.3449459903321
 21
-190.9893130486619
 31
0.0
 11
427.3649281770813
 21
-190.984417292409
 31
0.0
 11
427.418486850376
 21
-190.9724217675217
 31
0.0
 11
427.4598850995129
 21
-190.9642121037118
 31
0.0
 11
427.5128293524779
 21
-190.9549828873056
 31
0.0
 11
427.5559058699827
 21
-190.9484672539727
 31
0.0
 11
427.5978492092321
 21
-190.9429309433314
 31
0.0
 11
427.6497992939005
 21
-190.9371224562551
 31
0.0
 11
427.7006400562644
 21
-190.9324986077653
 31
0.0
 11
427.7471105834218
 21
-190.9291412534869
 31
0.0
 11
427.8387323919047
 21
-190.9247795096448
 31
0.0
 11
427.9417894800133
 21
-190.9231589245135
 31
0.0
  0
SPLINE
  5
24D
330
1F
100
AcDbEntity
  8
0
  6
Continuous
 62
     7
100
AcDbSpline
210
0.0
220
0.0
230
1.0
 70
     8
 71
     3
 72
     9
 73
     5
 74
     3
 42
0.000000001
 43
0.0000000001
 44
0.00000001
 40
0.0
 40
0.0
 40
0.0
 40
0.0
 40
0.2795425745629564
 40
0.556788296590895
 40
0.556788296590895
 40
0.556788296590895
 40
0.556788296590895
 10
422.1819871682437
 20
-194.4227809312763
 30
0.0
 10
422.1018068477043
 20
-194.477831922849
 30
0.0
 10
421.94210501984
 20
-194.5874815935414
 30
0.0
 10
421.9071048196982
 20
-194.7779346040637
 30
0.0
 10
421.8896769191741
 20
-194.8727682866956
 30
0.0
 11
422.1819871682437
 21
-194.4227809312763
 31
0.0
 11
421.972879358335
 21
-194.6083017557691
 31
0.0
 11
421.8896769191741
 21
-194.8727682866956
 31
0.0
  0
SPLINE
  5
24E
330
1F
100
AcDbEntity
  8
0
  6
Continuous
 62
     2
100
AcDbSpline
210
0.0
220
0.0
230
1.0
 70
     8
 71
     3
 72
    32
 73
    28
 74
    26
 42
0.000000001
 43
0.0000000001
 44
0.00000001
 40
0.0
 40
0.0
 40
0.0
 40
0.0
 40
0.4371466649280951
 40
0.9269702935475908
 40
1.033826343641093
 40
1.153810987749349
 40
1.273191052183177
 40
1.373890784308706
 40
1.569904838561486
 40
1.790945237230993
 40
2.530114023276362
 40
3.270529643361898
 40
3.704304963115901
 40
4.090991311516023
 40
4.491796904932325
 40
4.852409045002301
 40
5.312487507868538
 40
5.722738446852211
 40
6.11388536122233
 40
6.539706087072642
 40
6.986329953262568
 40
7.490255039190202
 40
8.047589685561398
 40
8.088953839163883
 40
8.130211670304423
 40
8.171496467577166
 40
8.212821691879455
 40
8.212821691879455
 40
8.212821691879455
 40
8.212821691879455
 10
641.6813808346624
 20
-179.9485893521536
 30
0.0
 10
641.8271117615492
 20
-179.9511871451976
 30
0.0
 10
642.1361344550946
 20
-179.9566957854906
 30
0.0
 10
642.47953997154
 20
-179.9902403217741
 30
0.0
 10
642.7162987934572
 20
-180.0220034435572
 30
0.0
 10
642.8304317154123
 20
-180.0391549565847
 30
0.0
 10
642.9422463577915
 20
-180.0578055487268
 30
0.0
 10
643.0787011875914
 20
-180.0826677876304
 30
0.0
 10
643.2478582191522
 20
-180.1170158212487
 30
0.0
 10
643.6232734775748
 20
-180.2043590980261
 30
0.0
 10
644.1668871391626
 20
-180.368745269822
 30
0.0
 10
644.7568507925512
 20
-180.6139611302394
 30
0.0
 10
645.2201801831286
 20
-180.8512638003787
 30
0.0
 10
645.5718308844752
 20
-181.0567239802646
 30
0.0
 10
645.8916948507847
 20
-181.2671885506331
 30
0.0
 10
646.2200109256892
 20
-181.5082549469579
 30
0.0
 10
646.5370219641354
 20
-181.7691970579617
 30
0.0
 10
646.8456110407077
 20
-182.0551374703385
 30
0.0
 10
647.1303772238002
 20
-182.3490788059025
 30
0.0
 10
647.4065510321313
 20
-182.667402508035
 30
0.0
 10
647.686567256189
 20
-183.0311777901888
 30
0.0
 10
647.967361624552
 20
-183.4484948503915
 30
0.0
 10
648.1505513536317
 20
-183.7675964621787
 30
0.0
 10
648.2492780522249
 20
-183.9566926872209
 30
0.0
 10
648.2681847528349
 20
-183.9934137420227
 30
0.0
 10
648.2869070297836
 20
-184.030214682021
 30
0.0
 10
648.2991965392355
 20
-184.0548569622583
 30
0.0
 10
648.3053442944993
 20
-184.067184135267
 30
0.0
 11
641.6813808346624
 21
-179.9485893521536
 31
0.0
 11
642.1183264268403
 21
-179.9618466718273
 31
0.0
 11
642.6060234119042
 21
-180.0074409538686
 31
0.0
 11
642.7119259344246
 21
-180.0216842396468
 31
0.0
 11
642.8305799369048
 21
-180.039503963184
 31
0.0
 11
642.9483327227168
 21
-180.0591478234492
 31
0.0
 11
643.047401562423
 21
-180.0771977838072
 31
0.0
 11
643.2394955069635
 21
-180.1162032450489
 31
0.0
 11
643.4547856295927
 21
-180.1662933740913
 31
0.0
 11
644.1623098409776
 21
-180.3802559537744
 31
0.0
 11
644.8460307729359
 21
-180.664405524334
 31
0.0
 11
645.2321169701366
 21
-180.8621388714919
 31
0.0
 11
645.5659924696769
 21
-181.0572118911751
 31
0.0
 11
645.9008209909455
 21
-181.2775184621746
 31
0.0
 11
646.1914941385261
 21
-181.4909434770374
 31
0.0
 11
646.5467144715111
 21
-181.7833314166554
 31
0.0
 11
646.8476416668307
 21
-182.062165876884
 31
0.0
 11
647.1198071287499
 21
-182.3430962420969
 31
0.0
 11
647.3988624150646
 21
-182.6647349181166
 31
0.0
 11
647.6712942931581
 21
-183.0186469832501
 31
0.0
 11
647.9526115934297
 21
-183.4367391610505
 31
0.0
 11
648.230116683984
 21
-183.9200742776202
 31
0.0
 11
648.2492596130612
 21
-183.9567422678643
 31
0.0
 11
648.2681509310619
 21
-183.9934209645646
 31
0.0
 11
648.2868517852762
 21
-184.0302273855197
 31
0.0
 11
648.3053442944993
 21
-184.067184135267
 31
0.0
  0
SPLINE
  5
24F
330
1F
100
AcDbEntity
  8
0
  6
Continuous
 62
     2
100
AcDbSpline
210
0.0
220
0.0
230
1.0
 70
     8
 71
     3
 72
     9
 73
     5
 74
     3
 42
0.000000001
 43
0.0000000001
 44
0.00000001
 40
0.0
 40
0.0
 40
0.0
 40
0.0
 40
0.8462976106217637
 40
1.698496743026193
 40
1.698496743026193
 40
1.698496743026193
 40
1.698496743026193
 10
649.1476211710457
 20
-191.9042245003932
 30
0.0
 10
649.108461319964
 20
-192.1911488127749
 30
0.0
 10
649.0298685246462
 20
-192.766998252226
 30
0.0
 10
648.6324676360073
 20
-193.1912579237553
 30
0.0
 10
648.4330767876621
 20
-193.4041248114425
 30
0.0
 11
649.1476211710457
 21
-191.9042245003932
 31
0.0
 11
648.9509924814591
 21
-192.7273628895438
 31
0.0
 11
648.4330767876621
 21
-193.4041248114425
 31
0.0
  0
SPLINE
  5
250
330
1F
100
AcDbEntity
  8
0
  6
Continuous
 62
     2
100
AcDbSpline
210
0.0
220
0.0
230
1.0
 70
     8
 71
     3
 72
    50
 73
    46
 74
    44
 42
0.000000001
 43
0.0000000001
 44
0.00000001
 40
0.0
 40
0.0
 40
0.0
 40
0.0
 40
0.3755614505684855
 40
0.7585054208685665
 40
1.135731447448182
 40
1.276766774067951
 40
1.401127092192314
 40
1.510404926290817
 40
1.606192787899834
 40
1.690083175250627
 40
1.763668575442918
 40
1.828541471348136
 40
1.886294355835766
 40
1.938519754818371
 40
1.986810256386485
 40
2.03275853591674
 40
2.128847651009371
 40
2.221086801473927
 40
2.265653257571292
 40
2.309126678510405
 40
2.330435445917478
 40
2.351463226912919
 40
2.362133766431804
 40
2.372209114462192
 40
2.382524077530404
 40
2.39286856055159
 40
2.543898162982292
 40
2.682284975095929
 40
2.807599756447408
 40
2.91941290168538
 40
3.131993313822057
 40
3.324690069054009
 40
3.497715742557792
 40
3.651281655992848
 40
3.785597855632655
 40
3.934897068132497
 40
4.065970931777814
 40
4.179236400473757
 40
4.275108843270957
 40
4.354001984244563
 40
4.416327908435524
 40
4.462497160200706
 40
4.492919364389716
 40
4.545494382396743
 40
4.594201104559914
 40
4.594201104559914
 40
4.594201104559914
 40
4.594201104559914
 10
649.0537093534912
 20
-187.3135500636494
 30
0.0
 10
649.0523762784222
 20
-187.4387307518127
 30
0.0
 10
649.0496839382156
 20
-187.6915528411965
 30
0.0
 10
649.0429012349807
 20
-188.0700678465806
 30
0.0
 10
649.0354398913212
 20
-188.3703948900116
 30
0.0
 10
649.0346946242328
 20
-188.5846048288878
 30
0.0
 10
649.0338020227003
 20
-188.7094923824974
 30
0.0
 10
649.033059773673
 20
-188.8192986403999
 30
0.0
 10
649.0323533315005
 20
-188.9156147273971
 30
0.0
 10
649.0317151083366
 20
-189.0000335356256
 30
0.0
 10
649.0311452766139
 20
-189.0741475719679
 30
0.0
 10
649.0306512719702
 20
-189.1395494339185
 30
0.0
 10
649.030239238256
 20
-189.1978317086023
 30
0.0
 10
649.0299160949969
 20
-189.2505869917865
 30
0.0
 10
649.0296889040405
 20
-189.2994078842354
 30
0.0
 10
649.0295203951028
 20
-189.3628503277839
 30
0.0
 10
649.0295985336767
 20
-189.4409428649449
 30
0.0
 10
649.0301464341442
 20
-189.5185731568176
 30
0.0
 10
649.0309055002804
 20
-189.5786615030338
 30
0.0
 10
649.0315136178133
 20
-189.6151061031078
 30
0.0
 10
649.0320872745481
 20
-189.6437036936432
 30
0.0
 10
649.032482855911
 20
-189.6613683137136
 30
0.0
 10
649.0328211336542
 20
-189.6752887637563
 30
0.0
 10
649.0330844360103
 20
-189.6856390328272
 30
0.0
 10
649.033344781529
 20
-189.6958806555712
 30
0.0
 10
649.0348119859807
 20
-189.7530915276773
 30
0.0
 10
649.0375097471099
 20
-189.8529755364602
 30
0.0
 10
649.041596984371
 20
-189.9911589700119
 30
0.0
 10
649.0456014115548
 20
-190.1162666041264
 30
0.0
 10
649.0507392316467
 20
-190.2660814021138
 30
0.0
 10
649.0572059263905
 20
-190.4383241072463
 30
0.0
 10
649.0652925880091
 20
-190.6309226445071
 30
0.0
 10
649.0733161987506
 20
-190.8038332538737
 30
0.0
 10
649.0811048541973
 20
-190.9572721142937
 30
0.0
 10
649.089110012063
 20
-191.1027795817963
 30
0.0
 10
649.0973407059181
 20
-191.2407647164748
 30
0.0
 10
649.1058296839609
 20
-191.3717032534808
 30
0.0
 10
649.1137441437212
 20
-191.4848311461144
 30
0.0
 10
649.1209177210649
 20
-191.5805735149355
 30
0.0
 10
649.127188851013
 20
-191.6593550432146
 30
0.0
 10
649.1323865885342
 20
-191.7216013518347
 30
0.0
 10
649.1363732640688
 20
-191.7677351282644
 30
0.0
 10
649.1400165087193
 20
-191.8106364890311
 30
0.0
 10
649.143174693924
 20
-191.8544256394256
 30
0.0
 10
649.1461772427049
 20
-191.888052994192
 30
0.0
 10
649.1476211710457
 20
-191.9042245003932
 30
0.0
 11
649.0537093534912
 21
-187.3135500636494
 31
0.0
 11
649.0492596488958
 21
-187.6890851515145
 31
0.0
 11
649.0424219912234
 21
-188.0719680728962
 31
0.0
 11
649.0354392142614
 21
-188.4491294654328
 31
0.0
 11
649.0345836427232
 21
-188.5901621968478
 31
0.0
 11
649.0337746324461
 21
-188.7145198834453
 31
0.0
 11
649.0330182082713
 21
-188.8237950995057
 31
0.0
 11
649.0323203950397
 21
-188.9195804193095
 31
0.0
 11
649.0316872175927
 21
-189.0034684171372
 31
0.0
 11
649.0311247007713
 21
-189.077051667269
 31
0.0
 11
649.0306388694172
 21
-189.1419227439855
 31
0.0
 11
649.0302357483711
 21
-189.1996742215671
 31
0.0
 11
649.0299213624744
 21
-189.2518986742942
 31
0.0
 11
649.0297017365681
 21
-189.3001886764472
 31
0.0
 11
649.0295828954938
 21
-189.3461368023066
 31
0.0
 11
649.0296987944864
 21
-189.4422258475256
 31
0.0
 11
649.030374124295
 21
-189.5344625257471
 31
0.0
 11
649.0309405656146
 21
-189.5790253819495
 31
0.0
 11
649.0316696606487
 21
-189.6224926886017
 31
0.0
 11
649.0320974828714
 21
-189.6437971608123
 31
0.0
 11
649.0325689986919
 21
-189.664819654621
 31
0.0
 11
649.0328280241627
 21
-189.6754870497706
 31
0.0
 11
649.0330823635744
 21
-189.6855591870437
 31
0.0
 11
649.0333449077403
 21
-189.6958708083276
 31
0.0
 11
649.0336100231198
 21
-189.7062118935051
 31
0.0
 11
649.037690938699
 21
-189.857186351279
 31
0.0
 11
649.0417845308187
 21
-189.9955126041437
 31
0.0
 11
649.0457957745907
 21
-190.1207631702517
 31
0.0
 11
649.049629645127
 21
-190.2325105677556
 31
0.0
 11
649.0576193297002
 21
-190.4449407831283
 31
0.0
 11
649.0657166670695
 21
-190.63746733308
 31
0.0
 11
649.0737495397328
 21
-190.8103064388861
 31
0.0
 11
649.0815458301879
 21
-190.9636743218223
 31
0.0
 11
649.0889334209329
 21
-191.0977872031642
 31
0.0
 11
649.0978389798121
 21
-191.2468205748997
 31
0.0
 11
649.1063331064051
 21
-191.377618921994
 31
0.0
 11
649.114249492925
 21
-191.4906074046895
 31
0.0
 11
649.1214218315849
 21
-191.5862111832283
 31
0.0
 11
649.1276838145984
 21
-191.6648554178526
 31
0.0
 11
649.1328691341783
 21
-191.7269652688047
 31
0.0
 11
649.1368114825382
 21
-191.7729658963266
 31
0.0
 11
649.1393445518909
 21
-191.8032824606607
 31
0.0
 11
649.1434220993699
 21
-191.8556991194502
 31
0.0
 11
649.1476211710457
 21
-191.9042245003932
 31
0.0
  0
SPLINE
  5
251
330
1F
100
AcDbEntity
  8
0
  6
Continuous
 62
     2
100
AcDbSpline
210
0.0
220
0.0
230
1.0
 70
     8
 71
     3
 72
    41
 73
    37
 74
    35
 42
0.000000001
 43
0.0000000001
 44
0.00000001
 40
0.0
 40
0.0
 40
0.0
 40
0.0
 40
0.0465034867192119
 40
0.0938601738538244
 40
0.2329619917867794
 40
0.3799863957804311
 40
0.537981943434653
 40
0.6823825282952451
 40
0.8261054707546401
 40
0.9952529068368733
 40
1.06431228862955
 40
1.154703491415972
 40
1.18909571559007
 40
1.235272615606254
 40
1.277057828246315
 40
1.316257047728557
 40
1.386750496885755
 40
1.477250929186243
 40
1.561935362585917
 40
1.638523433706587
 40
1.706811182742275
 40
1.799178018521005
 40
1.818667182994178
 40
1.839142776636106
 40
1.855306442887948
 40
1.879001621907378
 40
1.917178062311217
 40
1.958350381586166
 40
1.994384185537119
 40
2.052544017928581
 40
2.09963414305003
 40
2.146234495766484
 40
2.234851106385258
 40
2.331467843711065
 40
2.521780880110852
 40
2.687305789826814
 40
2.687305789826814
 40
2.687305789826814
 40
2.687305789826814
 10
648.3053442944993
 20
-184.067184135267
 30
0.0
 10
648.3116517425825
 20
-184.0813441601661
 30
0.0
 10
648.324382342216
 20
-184.1099240127572
 30
0.0
 10
648.3551027633018
 20
-184.1812446654149
 30
0.0
 10
648.3973178239446
 20
-184.2840906260339
 30
0.0
 10
648.4503659797155
 20
-184.422311910877
 30
0.0
 10
648.5012643442512
 20
-184.5632164287792
 30
0.0
 10
648.5495082938014
 20
-184.7038846545195
 30
0.0
 10
648.5970533574991
 20
-184.8487071808295
 30
0.0
 10
648.6352325016833
 20
-184.9701615509848
 30
0.0
 10
648.6671956083496
 20
-185.0749271028119
 30
0.0
 10
648.6856843338253
 20
-185.1368403140856
 30
0.0
 10
648.7017507157482
 20
-185.191515416485
 30
0.0
 10
648.7131398681062
 20
-185.2306777956007
 30
0.0
 10
648.7248505273208
 20
-185.2714151595266
 30
0.0
 10
648.7386589688692
 20
-185.3199830346554
 30
0.0
 10
648.7566527582949
 20
-185.3842426152558
 30
0.0
 10
648.7782645701309
 20
-185.4632329077853
 30
0.0
 10
648.79985330694
 20
-185.5443336115896
 30
0.0
 10
648.819046035378
 20
-185.6184082311133
 30
0.0
 10
648.8383854187277
 20
-185.6950883981395
 30
0.0
 10
648.8526278684249
 20
-185.753423734634
 30
0.0
 10
648.8628740777697
 20
-185.7963277474676
 30
0.0
 10
648.8671870843389
 20
-185.8145333211157
 30
0.0
 10
648.8717907515245
 20
-185.8341108134688
 30
0.0
 10
648.8776847531659
 20
-185.8594460506108
 30
0.0
 10
648.8853488765197
 20
-185.8929281737169
 30
0.0
 10
648.8937606471702
 20
-185.9304580410473
 30
0.0
 10
648.9034364407196
 20
-185.9745305002026
 30
0.0
 10
648.9132943610246
 20
-186.0205821828648
 30
0.0
 10
648.9235760252354
 20
-186.0701440185286
 30
0.0
 10
648.9355701663682
 20
-186.1297178424938
 30
0.0
 10
648.9501701882959
 20
-186.2056065570178
 30
0.0
 10
648.9722175960771
 20
-186.3288325609782
 30
0.0
 10
648.996011954541
 20
-186.4777956581917
 30
0.0
 10
649.0106592577167
 20
-186.595506699384
 30
0.0
 10
649.017472723979
 20
-186.6502622705373
 30
0.0
 11
648.3053442944993
 21
-184.067184135267
 31
0.0
 11
648.3241798848031
 21
-184.1097023053164
 31
0.0
 11
648.342940921466
 21
-184.15318424796
 31
0.0
 11
648.3958318403669
 21
-184.2818383052428
 31
0.0
 11
648.4486167234924
 21
-184.4190605025851
 31
0.0
 11
648.5023820260925
 21
-184.5676265998981
 31
0.0
 11
648.5492800913735
 21
-184.7041992924339
 31
0.0
 11
648.5941449453561
 21
-184.840740235137
 31
0.0
 11
648.6449142621793
 21
-185.0020887137813
 31
0.0
 11
648.6650640632761
 21
-185.0681431135035
 31
0.0
 11
648.6909336578982
 21
-185.1547533531066
 31
0.0
 11
648.7006300915708
 21
-185.1877503871565
 31
0.0
 11
648.7135246423683
 21
-185.2320903990196
 31
0.0
 11
648.7250685156378
 21
-185.2722493704088
 31
0.0
 11
648.7357883617556
 21
-185.3099543263863
 31
0.0
 11
648.7547953917827
 21
-185.3778370132616
 31
0.0
 11
648.7786723411821
 21
-185.4651308820274
 31
0.0
 11
648.8004523577308
 21
-185.5469665963042
 31
0.0
 11
648.8196553996809
 21
-185.6211081892978
 31
0.0
 11
648.8363512658372
 21
-185.6873234799573
 31
0.0
 11
648.8582651063078
 21
-185.7770531625637
 31
0.0
 11
648.8627921161154
 21
-185.7960092622105
 31
0.0
 11
648.8675122400281
 21
-185.8159333773729
 31
0.0
 11
648.8712110051276
 21
-185.8316681555193
 31
0.0
 11
648.8765805140162
 21
-185.8547469311114
 31
0.0
 11
648.8850989692911
 21
-185.8919608602404
 31
0.0
 11
648.8941039749725
 21
-185.9321363471327
 31
0.0
 11
648.9018313883073
 21
-185.9673318313689
 31
0.0
 11
648.9140003719359
 21
-186.0242043374145
 31
0.0
 11
648.923563774114
 21
-186.0703131351273
 31
0.0
 11
648.9327606682339
 21
-186.1159969398993
 31
0.0
 11
648.9494853896664
 21
-186.2030210022538
 31
0.0
 11
648.966517865984
 21
-186.2981245723451
 31
0.0
 11
648.996152496332
 21
-186.4861161666159
 31
0.0
 11
649.017472723979
 21
-186.6502622705373
 31
0.0
  0
SPLINE
  5
252
330
1F
100
AcDbEntity
  8
0
  6
Continuous
 62
     2
100
AcDbSpline
210
0.0
220
0.0
230
1.0
 70
     8
 71
     3
 72
    36
 73
    32
 74
    30
 42
0.000000001
 43
0.0000000001
 44
0.00000001
 40
0.0
 40
0.0
 40
0.0
 40
0.0
 40
0.0237639540611285
 40
0.0529848130117493
 40
0.083231883558619
 40
0.1060411247443453
 40
0.1626751300696713
 40
0.2126481204380414
 40
0.319092943155701
 40
0.4280186801629801
 40
0.5233495615978565
 40
0.6186093797287848
 40
0.7137746570584736
 40
0.8087774935334864
 40
0.8795302635638598
 40
0.9429634608775802
 40
0.9984485284009732
 40
1.054340609209509
 40
1.117408459388865
 40
1.186893201352799
 40
1.268524689194293
 40
1.340844181837794
 40
1.403395769991237
 40
1.460407310627034
 40
1.510462911470241
 40
1.535238579111277
 40
1.563744372046853
 40
1.576377458990173
 40
1.590336592141544
 40
1.607434958436825
 40
1.616958017352068
 40
1.616958017352068
 40
1.616958017352068
 40
1.616958017352068
 10
421.9327163591219
 20
-193.9275154884979
 30
0.0
 10
421.9247948129507
 20
-193.9274652631343
 30
0.0
 10
421.907132700103
 20
-193.9273532634975
 30
0.0
 10
421.879405579785
 20
-193.9262178495397
 30
0.0
 10
421.8520457516141
 20
-193.924253356264
 30
0.0
 10
421.8156638946967
 20
-193.9205880409273
 30
0.0
 10
421.7729332594996
 20
-193.9144522446346
 30
0.0
 10
421.7032848913331
 20
-193.9004513062671
 30
0.0
 10
421.6180726008556
 20
-193.876058377372
 30
0.0
 10
421.521922927377
 20
-193.8370576707983
 30
0.0
 10
421.4333596340884
 20
-193.7906877967251
 30
0.0
 10
421.3530728046775
 20
-193.7392106859013
 30
0.0
 10
421.2775790604899
 20
-193.6811219437468
 30
0.0
 10
421.2132837281349
 20
-193.6223927569674
 30
0.0
 10
421.1607654371887
 20
-193.566845822367
 30
0.0
 10
421.1201170771265
 20
-193.5183764022713
 30
0.0
 10
421.0850862060976
 20
-193.4717823614303
 30
0.0
 10
421.0525129111933
 20
-193.4235839805381
 30
0.0
 10
421.0202123426761
 20
-193.3696681251997
 30
0.0
 10
420.9873620983333
 20
-193.3062237675693
 30
0.0
 10
420.9579587368588
 20
-193.2377061707576
 30
0.0
 10
420.9346072805066
 20
-193.1693543913536
 30
0.0
 10
420.9181211373084
 20
-193.1075088116913
 30
0.0
 10
420.9069861006406
 20
-193.052042142065
 30
0.0
 10
420.9008032780621
 20
-193.0085086144854
 30
0.0
 10
420.8973435693364
 20
-192.9742338310505
 30
0.0
 10
420.8957731842089
 20
-192.9523143694025
 30
0.0
 10
420.894872972767
 20
-192.9339699691212
 30
0.0
 10
420.894375425254
 20
-192.9194144629752
 30
0.0
 10
420.8941318894725
 20
-192.9058886993979
 30
0.0
 10
420.894128107734
 20
-192.8970148263032
 30
0.0
 10
420.8941267615224
 20
-192.8938404501731
 30
0.0
 11
421.9327163591219
 21
-193.9275154884979
 31
0.0
 11
421.9089539783309
 21
-193.9272419423901
 31
0.0
 11
421.8797560344859
 21
-193.9260849017836
 31
0.0
 11
421.849587163543
 21
-193.9239112957978
 31
0.0
 11
421.8268926288891
 21
-193.9216266496895
 31
0.0
 11
421.7708323561712
 21
-193.9135857222912
 31
0.0
 11
421.7218380852931
 21
-193.9037439106568
 31
0.0
 11
421.6194837626412
 21
-193.8745190390455
 31
0.0
 11
421.5185158662318
 21
-193.833649733295
 31
0.0
 11
421.4340407350969
 21
-193.7894690910056
 31
0.0
 11
421.3538310762966
 21
-193.7380799530046
 31
0.0
 11
421.2783969392547
 21
-193.6800616726619
 31
0.0
 11
421.2082483733944
 21
-193.6159936033475
 31
0.0
 11
421.1596417401721
 21
-193.5645800876219
 31
0.0
 11
421.1188845856917
 21
-193.5159732482886
 31
0.0
 11
421.0855455717625
 21
-193.4716212152035
 31
0.0
 11
421.0542550916149
 21
-193.4253089001162
 31
0.0
 11
421.0218533328522
 21
-193.3712008624288
 31
0.0
 11
420.9899208702332
 21
-193.3094882446091
 31
0.0
 11
420.9577608331293
 21
-193.2344587047639
 31
0.0
 11
420.9344045266551
 21
-193.16601462534
 31
0.0
 11
420.918308491998
 21
-193.1055694526565
 31
0.0
 11
420.9070987245809
 21
-193.0496708216564
 31
0.0
 11
420.9000669497478
 21
-193.0001115903602
 31
0.0
 11
420.8975796805686
 21
-192.9754610886804
 31
0.0
 11
420.8955428839614
 21
-192.9470281542301
 31
0.0
 11
420.8949243394924
 21
-192.9344102182245
 31
0.0
 11
420.8944449620057
 21
-192.9204593175619
 31
0.0
 11
420.8941507635675
 21
-192.9033634803519
 31
0.0
 11
420.8941267615224
 21
-192.8938404501731
 31
0.0
  0
SPLINE
  5
253
330
1F
100
AcDbEntity
  8
0
  6
Continuous
 62
     2
100
AcDbSpline
210
0.0
220
0.0
230
1.0
 70
     8
 71
     3
 72
    36
 73
    32
 74
    30
 42
0.000000001
 43
0.0000000001
 44
0.00000001
 40
0.0
 40
0.0
 40
0.0
 40
0.0
 40
0.1393170927942922
 40
0.2471529207598545
 40
0.374632162119905
 40
0.481938761405864
 40
0.7231623364687301
 40
0.9666053405202277
 40
1.098861549103717
 40
1.242621031247328
 40
1.312258703395151
 40
1.394925880413139
 40
1.414761555876196
 40
1.434786360123194
 40
1.454242511194021
 40
1.475248164738165
 40
1.515806795212908
 40
1.556471235836682
 40
1.889753476026087
 40
2.219395388702847
 40
2.545113703747248
 40
2.914009398207399
 40
3.104682357356408
 40
3.277707299681885
 40
3.459185813473495
 40
3.655494071912183
 40
4.060873305744507
 40
4.46673738316513
 40
4.804182682383726
 40
5.112049199951924
 40
5.388293877873276
 40
5.388293877873276
 40
5.388293877873276
 40
5.388293877873276
 10
435.6416808292873
 20
-174.0402654242036
 30
0.0
 10
435.6487487637946
 20
-174.0861647863636
 30
0.0
 10
435.6612874894101
 20
-174.167591705845
 30
0.0
 10
435.6777157737741
 20
-174.2913904184626
 30
0.0
 10
435.6909103912427
 20
-174.4048405126054
 30
0.0
 10
435.7060982936898
 20
-174.5627881677437
 30
0.0
 10
435.7185560318745
 20
-174.7598056303422
 30
0.0
 10
435.720091542594
 20
-174.9655715147247
 30
0.0
 10
435.7132280248679
 20
-175.1386153133527
 30
0.0
 10
435.7046486815766
 20
-175.2535423301082
 30
0.0
 10
435.6946618392732
 20
-175.3517273388234
 30
0.0
 10
435.6877711701652
 20
-175.4086972713583
 30
0.0
 10
435.6823529927767
 20
-175.4491788785365
 30
0.0
 10
435.6796346744965
 20
-175.4687634407521
 30
0.0
 10
435.6767624575803
 20
-175.4887200783158
 30
0.0
 10
435.6728132563675
 20
-175.5154366218879
 30
0.0
 10
435.6676361631655
 20
-175.5491177863717
 30
0.0
 10
435.6456063237188
 20
-175.6855182261955
 30
0.0
 10
435.600092296505
 20
-175.9157690491461
 30
0.0
 10
435.5161936788119
 20
-176.2346680732962
 30
0.0
 10
435.4091753932847
 20
-176.55909425865
 30
0.0
 10
435.2986115788228
 20
-176.8329753480519
 30
0.0
 10
435.1954451751236
 20
-177.0543582468553
 30
0.0
 10
435.1131091971877
 20
-177.2163974970466
 30
0.0
 10
435.0245313559329
 20
-177.3772632688035
 30
0.0
 10
434.8905855315699
 20
-177.6013931065538
 30
0.0
 10
434.7021213010336
 20
-177.8797945372326
 30
0.0
 10
434.4638817492449
 20
-178.180045657641
 30
0.0
 10
434.2271201174493
 20
-178.4385993183849
 30
0.0
 10
434.0070154547153
 20
-178.6532379399936
 30
0.0
 10
433.8586033154741
 20
-178.7793330922989
 30
0.0
 10
433.7884145112387
 20
-178.8389674767125
 30
0.0
 11
435.6416808292873
 21
-174.0402654242036
 31
0.0
 11
435.6623442622274
 21
-174.1780416019468
 31
0.0
 11
435.6765904479478
 21
-174.284932256608
 31
0.0
 11
435.6912301601826
 21
-174.4115680962137
 31
0.0
 11
435.7014665837938
 21
-174.5183853323006
 31
0.0
 11
435.7162815781368
 21
-174.7591535389453
 31
0.0
 11
435.7178914199154
 21
-175.0025912206462
 31
0.0
 11
435.7126444125293
 21
-175.1347433061263
 31
0.0
 11
435.7019459060106
 21
-175.2781041472127
 31
0.0
 11
435.6949008527417
 21
-175.3473845385879
 31
0.0
 11
435.6849766827523
 21
-175.4294538570871
 31
0.0
 11
435.6823455013145
 21
-175.4491142463825
 31
0.0
 11
435.6795917856019
 21
-175.4689488080588
 31
0.0
 11
435.6768242754663
 21
-175.4882071232508
 31
0.0
 11
435.6737527319799
 21
-175.5089869958113
 31
0.0
 11
435.6675907968468
 21
-175.5490748127834
 31
0.0
 11
435.6611071453768
 21
-175.5892190403015
 31
0.0
 11
435.5964765341439
 21
-175.9161745972977
 31
0.0
 11
435.5126073279021
 21
-176.2349688056842
 31
0.0
 11
435.4105699514324
 21
-176.5442919295401
 31
0.0
 11
435.2724784307588
 21
-176.8863661404219
 31
0.0
 11
435.1919400308382
 21
-177.0591947942726
 31
0.0
 11
435.1135594115943
 21
-177.2134481873424
 31
0.0
 11
435.0260254130342
 21
-177.3724206697034
 31
0.0
 11
434.9253171181936
 21
-177.5409281525523
 31
0.0
 11
434.6980898042409
 21
-177.876636465577
 31
0.0
 11
434.4457394655187
 21
-178.1945121587666
 31
0.0
 11
434.2180572429235
 21
-178.4435706575115
 31
0.0
 11
433.9969896482759
 21
-178.6578389741956
 31
0.0
 11
433.7884145112387
 21
-178.8389674767125
 31
0.0
  0
SPLINE
  5
254
330
1F
100
AcDbEntity
  8
0
  6
Continuous
 62
     2
100
AcDbSpline
210
0.0
220
0.0
230
1.0
 70
     8
 71
     3
 72
    23
 73
    19
 74
    17
 42
0.000000001
 43
0.0000000001
 44
0.00000001
 40
0.0
 40
0.0
 40
0.0
 40
0.0
 40
0.2848455028546112
 40
0.5454646016373085
 40
0.8237921905443197
 40
1.063640280600925
 40
1.701397349896042
 40
2.314472902465091
 40
2.47887874264866
 40
2.661036495957051
 40
2.807190816744289
 40
2.970292452630526
 40
3.103877813934011
 40
3.263529721033447
 40
3.391577469367585
 40
3.490670815039729
 40
3.57880803150877
 40
3.634983768400964
 40
3.634983768400964
 40
3.634983768400964
 40
3.634983768400964
 10
430.3941267615729
 20
-179.9485893549449
 30
0.0
 10
430.4890849595849
 20
-179.947289702082
 30
0.0
 10
430.6709250624982
 20
-179.9448009190326
 30
0.0
 10
430.9449402318734
 20
-179.9249933307965
 30
0.0
 10
431.2029300551443
 20
-179.895396509637
 30
0.0
 10
431.5834682863475
 20
-179.8344152650773
 30
0.0
 10
432.0679377203963
 20
-179.7192975744423
 30
0.0
 10
432.5132917812788
 20
-179.5606544812412
 30
0.0
 10
432.8064076635861
 20
-179.4325003948239
 30
0.0
 10
432.9547647138593
 20
-179.3619562944885
 30
0.0
 10
433.1004901980361
 20
-179.2871097192909
 30
0.0
 10
433.2297768918101
 20
-179.2158175088528
 30
0.0
 10
433.3607947092701
 20
-179.1385017858823
 30
0.0
 10
433.479560354858
 20
-179.0635182646672
 30
0.0
 10
433.586383651717
 20
-178.9912871411962
 30
0.0
 10
433.6717347627245
 20
-178.9299579099824
 30
0.0
 10
433.7364817779073
 20
-178.8810335795608
 30
0.0
 10
433.7738632724522
 20
-178.8507541529465
 30
0.0
 10
433.7884145112387
 20
-178.8389674767125
 30
0.0
 11
430.3941267615729
 21
-179.9485893549449
 31
0.0
 11
430.6788911597037
 21
-179.9417925185526
 31
0.0
 11
430.9388787020424
 21
-179.92365991124
 31
0.0
 11
431.2153685773329
 21
-179.8917288247885
 31
0.0
 11
431.4521991795971
 21
-179.8538029585076
 31
0.0
 11
432.0726053717574
 21
-179.7060523711992
 31
0.0
 11
432.6500139161494
 21
-179.4999916797087
 31
0.0
 11
432.8006466051494
 21
-179.4341200360404
 31
0.0
 11
432.9651448577902
 21
-179.3558782816457
 31
0.0
 11
433.0951471698378
 21
-179.289091423366
 31
0.0
 11
433.2379599756981
 21
-179.210309152447
 31
0.0
 11
433.3529947725415
 21
-179.1423971187193
 31
0.0
 11
433.4879617924867
 21
-179.0571173730511
 31
0.0
 11
433.5939860365449
 21
-178.9853184488876
 31
0.0
 11
433.6744535910909
 21
-178.9274871108425
 31
0.0
 11
433.7446083072358
 21
-178.8741346506731
 31
0.0
 11
433.7884145112387
 21
-178.8389674767125
 31
0.0
  0
SPLINE
  5
255
330
1F
100
AcDbEntity
  8
0
  6
Continuous
 62
     7
100
AcDbSpline
210
0.0
220
0.0
230
1.0
 70
     8
 71
     3
 72
    15
 73
    11
 74
     9
 42
0.000000001
 43
0.0000000001
 44
0.00000001
 40
0.0
 40
0.0
 40
0.0
 40
0.0
 40
1.37202143338497
 40
2.743873489505845
 40
4.115595912505235
 40
5.487248178726501
 40
6.858900444947688
 40
8.230622867947066
 40
9.60247492406802
 40
10.97449635745302
 40
10.97449635745302
 40
10.97449635745302
 40
10.97449635745302
 10
643.8965254866938
 20
-164.540265424196
 30
0.0
 10
644.354599009543
 20
-164.5663000680612
 30
0.0
 10
645.2706895042318
 20
-164.6183661561855
 30
0.0
 10
646.5919572331181
 20
-165.0343731758367
 30
0.0
 10
647.8096500252097
 20
-165.6809902436574
 30
0.0
 10
648.8765375481885
 20
-166.5578546375305
 30
0.0
 10
649.7534019420613
 20
-167.624742160509
 30
0.0
 10
650.400019009882
 20
-168.8424349526009
 30
0.0
 10
650.8160260295334
 20
-170.163702681487
 30
0.0
 10
650.8680921176575
 20
-171.0797931761759
 30
0.0
 10
650.8941267615226
 20
-171.5378666990251
 30
0.0
 11
643.8965254866938
 21
-164.540265424196
 31
0.0
 11
645.2619451021354
 21
-164.6746979060208
 31
0.0
 11
646.5747539233157
 21
-165.0728323913251
 31
0.0
 11
647.7845449327071
 21
-165.7193833358355
 31
0.0
 11
648.8448675736902
 21
-166.5895246120287
 31
0.0
 11
649.7150088498832
 21
-167.6498472530117
 31
0.0
 11
650.3615597943938
 21
-168.8596382624031
 31
0.0
 11
650.7596942796981
 21
-170.1724470835834
 31
0.0
 11
650.8941267615226
 21
-171.5378666990251
 31
0.0
  0
SPLINE
  5
256
330
1F
100
AcDbEntity
  8
0
  6
Continuous
 62
     7
100
AcDbSpline
210
0.0
220
0.0
230
1.0
 70
     8
 71
     3
 72
     9
 73
     5
 74
     3
 42
0.000000001
 43
0.0000000001
 44
0.00000001
 40
0.0
 40
0.0
 40
0.0
 40
0.0
 40
0.0187444781283817
 40
0.0367463863987938
 40
0.0367463863987938
 40
0.0367463863987938
 40
0.0367463863987938
 10
1131.371620356051
 20
-193.927515488558
 30
0.0
 10
1131.365374730534
 20
-193.9277471548546
 30
0.0
 10
1131.353130903579
 20
-193.9282013298623
 30
0.0
 10
1131.340940054092
 20
-193.9294247503003
 30
0.0
 10
1131.334967806285
 20
-193.9300241088648
 30
0.0
 11
1131.371620356051
 21
-193.927515488558
 31
0.0
 11
1131.352897265068
 21
-193.928410660175
 31
0.0
 11
1131.334967806285
 21
-193.9300241088648
 31
0.0
  0
SPLINE
  5
257
330
1F
100
AcDbEntity
  8
0
  6
Continuous
 62
     7
100
AcDbSpline
210
0.0
220
0.0
230
1.0
 70
     8
 71
     3
 72
     9
 73
     5
 74
     3
 42
0.000000001
 43
0.0000000001
 44
0.00000001
 40
0.0
 40
0.0
 40
0.0
 40
0.0
 40
0.0035946712730532
 40
0.0071888761637495
 40
0.0071888761637495
 40
0.0071888761637495
 40
0.0071888761637495
 10
1117.384719957998
 20
-341.2546190121229
 30
0.0
 10
1117.38472582337
 20
-341.2558172934002
 30
0.0
 10
1117.384737573349
 20
-341.2582137001928
 30
0.0
 10
1117.384819695193
 20
-341.2606087282664
 30
0.0
 10
1117.384860763446
 20
-341.2618061643689
 30
0.0
 11
1117.384719957998
 21
-341.2546190121229
 31
0.0
 11
1117.384755159362
 21
-341.2582135111324
 31
0.0
 11
1117.384860763446
 21
-341.2618061643689
 31
0.0
  0
SPLINE
  5
258
330
1F
100
AcDbEntity
  8
0
  6
Continuous
 62
     7
100
AcDbSpline
210
0.0
220
0.0
230
1.0
 70
     8
 71
     3
 72
     9
 73
     5
 74
     3
 42
0.000000001
 43
0.0000000001
 44
0.00000001
 40
0.0
 40
0.0
 40
0.0
 40
0.0
 40
0.049342174701317
 40
0.098742999217644
 40
0.098742999217644
 40
0.098742999217644
 40
0.098742999217644
 10
1147.170889537032
 20
-179.9521329887725
 30
0.0
 10
1147.154457234683
 20
-179.9514229916473
 30
0.0
 10
1147.121573097216
 20
-179.9500021734546
 30
0.0
 10
1147.088671752777
 20
-179.9490604723662
 30
0.0
 10
1147.072211309111
 20
-179.9485893521537
 30
0.0
 11
1147.170889537032
 21
-179.9521329887725
 31
0.0
 11
1147.121588332943
 21
-179.9501226444054
 31
0.0
 11
1147.072211309111
 21
-179.9485893521537
 31
0.0
  0
SPLINE
  5
259
330
1F
100
AcDbEntity
  8
0
  6
Continuous
 62
     7
100
AcDbSpline
210
0.0
220
0.0
230
1.0
 70
     8
 71
     3
 72
     9
 73
     5
 74
     3
 42
0.000000001
 43
0.0000000001
 44
0.00000001
 40
0.0
 40
0.0
 40
0.0
 40
0.0
 40
0.0437561079370299
 40
0.0874190920530937
 40
0.0874190920530937
 40
0.0874190920530937
 40
0.0874190920530937
 10
1130.975963536224
 20
-194.1505429112015
 30
0.0
 10
1130.967810849116
 20
-194.1626559421007
 30
0.0
 10
1130.951522842853
 20
-194.1868562348259
 30
0.0
 10
1130.93836561589
 20
-194.2128915189356
 30
0.0
 10
1130.931794019034
 20
-194.2258952987164
 30
0.0
 11
1130.975963536224
 21
-194.1505429112015
 31
0.0
 11
1130.952289846565
 21
-194.1873417350421
 31
0.0
 11
1130.931794019034
 21
-194.2258952987164
 31
0.0
  0
SPLINE
  5
25A
330
1F
100
AcDbEntity
  8
0
  6
Continuous
 62
     7
100
AcDbSpline
210
0.0
220
0.0
230
1.0
 70
     8
 71
     3
 72
     9
 73
     5
 74
     3
 42
0.000000001
 43
0.0000000001
 44
0.00000001
 40
0.0
 40
0.0
 40
0.0
 40
0.0
 40
0.1039353281057328
 40
0.2081715544176908
 40
0.2081715544176908
 40
0.2081715544176908
 40
0.2081715544176908
 10
1130.931794019034
 20
-194.2258952987164
 30
0.0
 10
1130.918319233998
 20
-194.2581025166837
 30
0.0
 10
1130.891330672698
 20
-194.322610199776
 30
0.0
 10
1130.886925645456
 20
-194.3923990135135
 30
0.0
 10
1130.884719958004
 20
-194.427343859652
 30
0.0
 11
1130.931794019034
 21
-194.2258952987164
 31
0.0
 11
1130.896999246948
 21
-194.3238334245691
 31
0.0
 11
1130.884719958004
 21
-194.427343859652
 31
0.0
  0
SPLINE
  5
25B
330
1F
100
AcDbEntity
  8
0
  6
Continuous
 62
     7
100
AcDbSpline
210
0.0
220
0.0
230
1.0
 70
     8
 71
     3
 72
    25
 73
    21
 74
    19
 42
0.000000001
 43
0.0000000001
 44
0.00000001
 40
0.0
 40
0.0
 40
0.0
 40
0.0
 40
0.0139951969455691
 40
0.0409096413268682
 40
0.0871223475032424
 40
0.1887968200776425
 40
0.3119898532006238
 40
0.5017539127591812
 40
0.7345497581142221
 40
1.008934023876201
 40
1.323425123810556
 40
1.676522362458593
 40
2.066714499141473
 40
2.579292372282824
 40
3.132971880745649
 40
3.723441790914503
 40
4.346387108542889
 40
4.997490529274159
 40
5.991105916402678
 40
7.006475720179973
 40
7.006475720179973
 40
7.006475720179973
 40
7.006475720179973
 10
1117.384860763445
 20
-348.2522129076517
 30
0.0
 10
1117.389109580768
 20
-348.250017965107
 30
0.0
 10
1117.401529394044
 20
-348.2436019002716
 30
0.0
 10
1117.41152074717
 20
-348.2140358184524
 30
0.0
 10
1117.427293083891
 20
-348.15933935455
 30
0.0
 10
1117.440250845211
 20
-348.068782709653
 30
0.0
 10
1117.45497498862
 20
-347.9318107692036
 30
0.0
 10
1117.467575094156
 20
-347.7500846741728
 30
0.0
 10
1117.478738737033
 20
-347.518111227562
 30
0.0
 10
1117.487435390776
 20
-347.2443206527309
 30
0.0
 10
1117.493716511627
 20
-346.9303969381634
 30
0.0
 10
1117.497472802847
 20
-346.5778161643359
 30
0.0
 10
1117.498753329685
 20
-346.1591934689131
 30
0.0
 10
1117.496805099993
 20
-345.6737096813788
 30
0.0
 10
1117.49106253185
 20
-345.121494086587
 30
0.0
 10
1117.481678180528
 20
-344.5325346351599
 30
0.0
 10
1117.4687328657
 20
-343.9111607583679
 30
0.0
 10
1117.449520588266
 20
-343.1555153880731
 30
0.0
 10
1117.422711374103
 20
-342.269216329788
 30
0.0
 10
1117.397568383714
 20
-341.6000250124306
 30
0.0
 10
1117.384860763446
 20
-341.2618061643689
 30
0.0
 11
1117.384860763445
 21
-348.2522129076517
 31
0.0
 11
1117.396702761891
 21
-348.2447541847893
 31
0.0
 11
1117.409065361755
 21
-348.2208470011834
 31
0.0
 11
1117.421676048691
 21
-348.1763882030013
 31
0.0
 11
1117.438657281508
 21
-348.0761418264171
 31
0.0
 11
1117.452008470402
 21
-347.9536744057983
 31
0.0
 11
1117.465979120178
 21
-347.7644253128428
 31
0.0
 11
1117.477491937192
 21
-347.5319143225418
 31
0.0
 11
1117.486510226609
 21
-347.2576783006295
 31
0.0
 11
1117.492997293596
 21
-346.9432541128403
 31
0.0
 11
1117.496916443318
 21
-346.5901786249083
 31
0.0
 11
1117.498230980941
 21
-346.1999887025677
 31
0.0
 11
1117.496335574938
 21
-345.6874143338742
 31
0.0
 11
1117.490695862544
 21
-345.1337635488911
 31
0.0
 11
1117.481381602053
 21
-344.5433671063646
 31
0.0
 11
1117.468462551754
 21
-343.9205557650413
 31
0.0
 11
1117.45200846994
 21
-343.2696602836679
 31
0.0
 11
1117.421733026639
 21
-342.2765062497464
 31
0.0
 11
1117.384860763446
 21
-341.2618061643689
 31
0.0
  0
SPLINE
  5
25C
330
1F
100
AcDbEntity
  8
0
  6
Continuous
 62
     7
100
AcDbSpline
210
0.0
220
0.0
230
1.0
 70
     8
 71
     3
 72
    15
 73
    11
 74
     9
 42
0.000000001
 43
0.0000000001
 44
0.00000001
 40
0.0
 40
0.0
 40
0.0
 40
0.0
 40
0.0041802569977653
 40
0.0083853507114834
 40
0.0109244299021529
 40
0.0134457235054017
 40
0.0143032139809442
 40
0.0152118060147986
 40
0.0159699973172636
 40
0.0163762855916955
 40
0.0163762855916955
 40
0.0163762855916955
 40
0.0163762855916955
 10
1147.510920203664
 20
-179.9790440562325
 30
0.0
 10
1147.509535510986
 20
-179.9788883549233
 30
0.0
 10
1147.506757896921
 20
-179.9785760419305
 30
0.0
 10
1147.503138807681
 20
-179.978172867061
 30
0.0
 10
1147.500069100292
 20
-179.9778327787457
 30
0.0
 10
1147.498108373039
 20
-179.9776164847831
 30
0.0
 10
1147.496687800731
 20
-179.9774603641171
 30
0.0
 10
1147.495851397736
 20
-179.9773685741523
 30
0.0
 10
1147.495164492134
 20
-179.9772932436514
 30
0.0
 10
1147.494778643542
 20
-179.9772509477882
 30
0.0
 10
1147.494644019805
 20
-179.9772361972443
 30
0.0
 11
1147.510920203664
 21
-179.9790440562325
 31
0.0
 11
1147.506766045879
 21
-179.9785776640519
 31
0.0
 11
1147.502586826412
 21
-179.9781118981924
 31
0.0
 11
1147.500063186984
 21
-179.9778323142196
 31
0.0
 11
1147.497557089047
 21
-179.9775559185012
 31
0.0
 11
1147.4967047314
 21
-179.9774622362733
 31
0.0
 11
1147.495801563079
 21
-179.9773631077306
 31
0.0
 11
1147.495047890432
 21
-179.9772804542591
 31
0.0
 11
1147.494644019805
 21
-179.9772361972443
 31
0.0
  0
SPLINE
  5
25D
330
1F
100
AcDbEntity
  8
0
  6
Continuous
 62
     7
100
AcDbSpline
210
0.0
220
0.0
230
1.0
 70
     8
 71
     3
 72
    33
 73
    29
 74
    27
 42
0.000000001
 43
0.0000000001
 44
0.00000001
 40
0.0
 40
0.0
 40
0.0
 40
0.0
 40
0.7177177241811453
 40
1.333338352324464
 40
1.66702770767837
 40
2.000735756213745
 40
2.317447509080726
 40
2.672144735351718
 40
3.284746185217912
 40
3.806037183102478
 40
4.420987699163698
 40
4.936196243662966
 40
5.50505906853631
 40
6.073435401465086
 40
6.598746808148869
 40
7.221456198413364
 40
7.541753528324349
 40
7.89239246296785
 40
8.248698985838509
 40
8.567087752831345
 40
8.899153949508287
 40
9.231505234201341
 40
9.391678015526695
 40
9.546233028289048
 40
9.64243639634577
 40
9.738759576330192
 40
9.793009619971928
 40
9.84728836876774
 40
9.84728836876774
 40
9.84728836876774
 40
9.84728836876774
 10
1152.807387559612
 20
-187.0785815184458
 30
0.0
 10
1152.843055206146
 20
-186.841623605713
 30
0.0
 10
1152.909316675646
 20
-186.4014156193604
 30
0.0
 10
1152.900099750404
 20
-185.8436471416958
 30
0.0
 10
1152.859776696012
 20
-185.4178256946987
 30
0.0
 10
1152.808887410002
 20
-185.0935186753042
 30
0.0
 10
1152.738452917664
 20
-184.7658117207666
 30
0.0
 10
1152.624796929341
 20
-184.3529392714131
 30
0.0
 10
1152.455194829213
 20
-183.8856752705425
 30
0.0
 10
1152.207978509551
 20
-183.3571162482239
 30
0.0
 10
1151.931966831183
 20
-182.8798467626087
 30
0.0
 10
1151.607846603367
 20
-182.4147986126405
 30
0.0
 10
1151.257301983352
 20
-181.9890677830431
 30
0.0
 10
1150.869809432083
 20
-181.5919262719055
 30
0.0
 10
1150.4375808065
 20
-181.2162285644712
 30
0.0
 10
1150.040596794402
 20
-180.9284533416351
 30
0.0
 10
1149.673266658934
 20
-180.7022882422405
 30
0.0
 10
1149.372100596693
 20
-180.5389344685948
 30
0.0
 10
1149.062324308358
 20
-180.3940326839265
 30
0.0
 10
1148.750405679161
 20
-180.2697719214947
 30
0.0
 10
1148.439385889383
 20
-180.166255342741
 30
0.0
 10
1148.173623723614
 20
-180.0953703322439
 30
0.0
 10
1147.962853107058
 20
-180.0494290544151
 30
0.0
 10
1147.828188220362
 20
-180.0242484130065
 30
0.0
 10
1147.71398479708
 20
-180.0057013041187
 30
0.0
 10
1147.632552392966
 20
-179.9940365543508
 30
0.0
 10
1147.564829864179
 20
-179.9852850650103
 30
0.0
 10
1147.528893259397
 20
-179.9811247545173
 30
0.0
 10
1147.510920203664
 20
-179.9790440562325
 30
0.0
 11
1152.807387559612
 21
-187.0785815184458
 31
0.0
 11
1152.893055049864
 21
-186.3659948120367
 31
0.0
 11
1152.888201302842
 21
-185.7503933173557
 31
0.0
 11
1152.856393321951
 21
-185.4182234232976
 31
0.0
 11
1152.804864194688
 21
-185.0885177804317
 31
0.0
 11
1152.738359843893
 21
-184.7788671613576
 31
0.0
 11
1152.644319697973
 21
-184.4368633990671
 31
0.0
 11
1152.435714587777
 21
-183.8608734299272
 31
0.0
 11
1152.215054335179
 21
-183.3885881800128
 31
0.0
 11
1151.907387866889
 21
-182.8561358524804
 31
0.0
 11
1151.612850150399
 21
-182.4334215547596
 31
0.0
 11
1151.251241800315
 21
-181.9942811282571
 31
0.0
 11
1150.854233296515
 21
-181.5875430019959
 31
0.0
 11
1150.457650602928
 21
-181.2430517235372
 31
0.0
 11
1149.953249313848
 21
-180.8778855637777
 31
0.0
 11
1149.680470910425
 21
-180.7100096506834
 31
0.0
 11
1149.372206876444
 21
-180.5429140256384
 31
0.0
 11
1149.049419363365
 21
-180.3920413648995
 31
0.0
 11
1148.753608897591
 21
-180.2742806947701
 31
0.0
 11
1148.438507716592
 21
-180.1694989933149
 31
0.0
 11
1148.117362005032
 21
-180.0839255810949
 31
0.0
 11
1147.960861821841
 21
-180.0498226081778
 31
0.0
 11
1147.80893907299
 21
-180.021419602412
 31
0.0
 11
1147.713978791242
 21
-180.0060042470937
 31
0.0
 11
1147.618631445987
 21
-179.9923280201785
 31
0.0
 11
1147.564824915051
 21
-179.9854052569582
 31
0.0
 11
1147.510920203664
 21
-179.9790440562325
 31
0.0
  0
SPLINE
  5
25E
330
1F
100
AcDbEntity
  8
0
  6
Continuous
 62
     7
100
AcDbSpline
210
0.0
220
0.0
230
1.0
 70
     8
 71
     3
 72
     9
 73
     5
 74
     3
 42
0.000000001
 43
0.0000000001
 44
0.00000001
 40
0.0
 40
0.0
 40
0.0
 40
0.0
 40
0.1626448992032858
 40
0.3247670877768275
 40
0.3247670877768275
 40
0.3247670877768275
 40
0.3247670877768275
 10
1147.170889537032
 20
-179.9521329887725
 30
0.0
 10
1147.225035140349
 20
-179.9550385000676
 30
0.0
 10
1147.333152331638
 20
-179.9608402048291
 30
0.0
 10
1147.440871248628
 20
-179.9717767272308
 30
0.0
 10
1147.494644019805
 20
-179.9772361972443
 30
0.0
 11
1147.170889537032
 21
-179.9521329887725
 31
0.0
 11
1147.333226457023
 21
-179.9621373726314
 31
0.0
 11
1147.494644019805
 21
-179.9772361972443
 31
0.0
  0
SPLINE
  5
25F
330
1F
100
AcDbEntity
  8
0
  6
Continuous
 62
     7
100
AcDbSpline
210
0.0
220
0.0
230
1.0
 70
     8
 71
     3
 72
    23
 73
    19
 74
    17
 42
0.000000001
 43
0.0000000001
 44
0.00000001
 40
0.0
 40
0.0
 40
0.0
 40
0.0
 40
0.9062778338926091
 40
1.687820265223361
 40
2.530591708072945
 40
3.37383818696298
 40
4.84830835372653
 40
6.319849327072936
 40
6.95226634711339
 40
7.694688350384625
 40
8.332106925334216
 40
9.07305311496458
 40
9.91509295496874
 40
10.74966452136613
 40
11.58753464222119
 40
12.42341322599273
 40
12.52516365542842
 40
12.62697694357195
 40
12.62697694357195
 40
12.62697694357195
 40
12.62697694357195
 10
636.263197153645
 20
-173.152583157792
 30
0.0
 10
636.2525382264362
 20
-172.8503037912699
 30
0.0
 10
636.2326873978061
 20
-172.2873492306182
 30
0.0
 10
636.0830007122181
 20
-171.4549095021679
 30
0.0
 10
635.862137013076
 20
-170.661422498268
 30
0.0
 10
635.4762656295129
 20
-169.679313722235
 30
0.0
 10
634.8603187512706
 20
-168.5697731058657
 30
0.0
 10
634.1173295155493
 20
-167.629503603201
 30
0.0
 10
633.4470189539541
 20
-166.9572099095361
 30
0.0
 10
632.9378307420031
 20
-166.5192631708017
 30
0.0
 10
632.3666818659128
 20
-166.101665622431
 30
0.0
 10
631.7347802588531
 20
-165.7144084189316
 30
0.0
 10
631.0083340160811
 20
-165.3619722230256
 30
0.0
 10
630.2167474924559
 20
-165.0809950099325
 30
0.0
 10
629.3994985806335
 20
-164.8952046965381
 30
0.0
 10
628.8086028370656
 20
-164.8374036911018
 30
0.0
 10
628.4622252837985
 20
-164.8287893327471
 30
0.0
 10
628.3943693150142
 20
-164.8284701800436
 30
0.0
 10
628.3604308538964
 20
-164.8283105614864
 30
0.0
 11
636.263197153645
 21
-173.152583157792
 31
0.0
 11
636.2081592709026
 21
-172.2479780819468
 31
0.0
 11
636.0752073544661
 21
-171.4778272136973
 31
0.0
 11
635.8484523756749
 21
-170.6661339933238
 31
0.0
 11
635.5409207478697
 21
-169.8809659086388
 31
0.0
 11
634.8265755698441
 21
-168.5910925673628
 31
0.0
 11
633.9144222179507
 21
-167.4363592228117
 31
0.0
 11
633.4678199888411
 21
-166.9885894873184
 31
0.0
 11
632.904762475555
 21
-166.5046921143179
 31
0.0
 11
632.3900591953787
 21
-166.1286828417064
 31
0.0
 11
631.7580363078454
 21
-165.741968055762
 31
0.0
 11
631.000032618254
 21
-165.3752781337021
 31
0.0
 11
630.213203090473
 21
-165.0970534151986
 31
0.0
 11
629.3959177896224
 21
-164.9124698913501
 31
0.0
 11
628.5639616216549
 21
-164.8315875650974
 31
0.0
 11
628.462240834083
 21
-164.8291316023292
 31
0.0
 11
628.3604308538964
 21
-164.8283105614864
 31
0.0
  0
SPLINE
  5
260
330
1F
100
AcDbEntity
  8
0
  6
Continuous
 62
     7
100
AcDbSpline
210
0.0
220
0.0
230
1.0
 70
     8
 71
     3
 72
    15
 73
    11
 74
     9
 42
0.000000001
 43
0.0000000001
 44
0.00000001
 40
0.0
 40
0.0
 40
0.0
 40
0.0
 40
1.372021433384953
 40
2.743873489505874
 40
4.115595912505404
 40
5.487248178726547
 40
6.858900444947762
 40
8.230622867947213
 40
9.60247492406797
 40
10.97449635745305
 40
10.97449635745305
 40
10.97449635745305
 40
10.97449635745305
 10
650.8941267615226
 20
-341.5426641493819
 30
0.0
 10
650.8680921176574
 20
-342.0007376722311
 30
0.0
 10
650.8160260295332
 20
-342.9168281669199
 30
0.0
 10
650.4000190098823
 20
-344.2380958958061
 30
0.0
 10
649.7534019420613
 20
-345.4557886878982
 30
0.0
 10
648.8765375481883
 20
-346.5226762108765
 30
0.0
 10
647.8096500252099
 20
-347.3995406047497
 30
0.0
 10
646.5919572331179
 20
-348.0461576725702
 30
0.0
 10
645.2706895042318
 20
-348.4621646922214
 30
0.0
 10
644.3545990095429
 20
-348.5142307803457
 30
0.0
 10
643.8965254866937
 20
-348.5402654242109
 30
0.0
 11
650.8941267615226
 21
-341.5426641493819
 31
0.0
 11
650.759694279698
 21
-342.9080837648235
 31
0.0
 11
650.3615597943938
 21
-344.2208925860038
 31
0.0
 11
649.7150088498831
 21
-345.4306835953954
 31
0.0
 11
648.8448675736901
 21
-346.4910062363783
 31
0.0
 11
647.7845449327071
 21
-347.3611475125715
 31
0.0
 11
646.5747539233156
 21
-348.0076984570819
 31
0.0
 11
645.2619451021354
 21
-348.4058329423862
 31
0.0
 11
643.8965254866937
 21
-348.5402654242109
 31
0.0
  0
SPLINE
  5
261
330
1F
100
AcDbEntity
  8
0
  6
Continuous
 62
     7
100
AcDbSpline
210
0.0
220
0.0
230
1.0
 70
     8
 71
     3
 72
    15
 73
    11
 74
     9
 42
0.000000001
 43
0.0000000001
 44
0.00000001
 40
0.0
 40
0.0
 40
0.0
 40
0.0
 40
1.372021433384806
 40
2.743873489505814
 40
4.115595912505292
 40
5.48724817872655
 40
6.858900444947693
 40
8.230622867947183
 40
9.602474924068096
 40
10.97449635745289
 40
10.97449635745289
 40
10.97449635745289
 40
10.97449635745289
 10
420.8941267615224
 20
-171.537866699025
 30
0.0
 10
420.9201614053877
 20
-171.0797931761759
 30
0.0
 10
420.972227493512
 20
-170.1637026814871
 30
0.0
 10
421.3882345131631
 20
-168.8424349526009
 30
0.0
 10
422.034851580984
 20
-167.6247421605089
 30
0.0
 10
422.911715974857
 20
-166.5578546375304
 30
0.0
 10
423.9786034978356
 20
-165.6809902436574
 30
0.0
 10
425.1962962899274
 20
-165.0343731758367
 30
0.0
 10
426.5175640188136
 20
-164.6183661561856
 30
0.0
 10
427.4336545135022
 20
-164.5663000680613
 30
0.0
 10
427.8917280363515
 20
-164.5402654241961
 30
0.0
 11
420.8941267615224
 21
-171.537866699025
 31
0.0
 11
421.0285592433472
 21
-170.1724470835835
 31
0.0
 11
421.4266937286516
 21
-168.8596382624032
 31
0.0
 11
422.073244673162
 21
-167.6498472530116
 31
0.0
 11
422.9433859493552
 21
-166.5895246120286
 31
0.0
 11
424.0037085903382
 21
-165.7193833358355
 31
0.0
 11
425.2134995997297
 21
-165.0728323913251
 31
0.0
 11
426.52630842091
 21
-164.6746979060208
 31
0.0
 11
427.8917280363515
 21
-164.5402654241961
 31
0.0
  0
SPLINE
  5
262
330
1F
100
AcDbEntity
  8
0
  6
Continuous
 62
     2
100
AcDbSpline
210
0.0
220
0.0
230
1.0
 70
     8
 71
     3
 72
    32
 73
    28
 74
    26
 42
0.000000001
 43
0.0000000001
 44
0.00000001
 40
0.0
 40
0.0
 40
0.0
 40
0.0
 40
0.4371466649284325
 40
0.9269702935475886
 40
1.033826343641429
 40
1.153810987749347
 40
1.273191052183232
 40
1.373890784308705
 40
1.56990483856154
 40
1.790945237231048
 40
2.53011402327627
 40
3.270529643361836
 40
3.704304963116016
 40
4.090991311516118
 40
4.491796904932326
 40
4.852409045002291
 40
5.312487507868711
 40
5.72273844685224
 40
6.113885361222419
 40
6.539706087072672
 40
6.986329953262678
 40
7.490255039190304
 40
8.047589685561553
 40
8.088953839164013
 40
8.13021167030445
 40
8.171496467577242
 40
8.212821691879558
 40
8.212821691879558
 40
8.212821691879558
 40
8.212821691879558
 10
430.1068726883826
 20
-179.9485893521537
 30
0.0
 10
429.9611417614956
 20
-179.9511871451977
 30
0.0
 10
429.6521190679504
 20
-179.9566957854906
 30
0.0
 10
429.3087135515046
 20
-179.9902403217742
 30
0.0
 10
429.0719547295876
 20
-180.0220034435571
 30
0.0
 10
428.9578218076325
 20
-180.0391549565847
 30
0.0
 10
428.8460071652534
 20
-180.0578055487268
 30
0.0
 10
428.7095523354536
 20
-180.0826677876304
 30
0.0
 10
428.5403953038928
 20
-180.1170158212487
 30
0.0
 10
428.16498004547
 20
-180.2043590980261
 30
0.0
 10
427.6213663838828
 20
-180.3687452698222
 30
0.0
 10
427.031402730494
 20
-180.6139611302393
 30
0.0
 10
426.5680733399163
 20
-180.8512638003787
 30
0.0
 10
426.2164226385699
 20
-181.0567239802648
 30
0.0
 10
425.89655867226
 20
-181.2671885506332
 30
0.0
 10
425.5682425973558
 20
-181.5082549469581
 30
0.0
 10
425.2512315589094
 20
-181.7691970579616
 30
0.0
 10
424.9426424823374
 20
-182.0551374703385
 30
0.0
 10
424.6578762992445
 20
-182.3490788059025
 30
0.0
 10
424.3817024909135
 20
-182.667402508035
 30
0.0
 10
424.1016862668558
 20
-183.031177790189
 30
0.0
 10
423.8208918984927
 20
-183.4484948503915
 30
0.0
 10
423.6377021694134
 20
-183.7675964621791
 30
0.0
 10
423.5389754708201
 20
-183.9566926872209
 30
0.0
 10
423.5200687702101
 20
-183.9934137420228
 30
0.0
 10
423.5013464932614
 20
-184.030214682021
 30
0.0
 10
423.4890569838092
 20
-184.0548569622584
 30
0.0
 10
423.4829092285457
 20
-184.0671841352671
 30
0.0
 11
430.1068726883826
 21
-179.9485893521537
 31
0.0
 11
429.6699270962043
 21
-179.9618466718273
 31
0.0
 11
429.1822301111408
 21
-180.0074409538686
 31
0.0
 11
429.0763275886201
 21
-180.0216842396468
 31
0.0
 11
428.9576735861402
 21
-180.039503963184
 31
0.0
 11
428.8399208003281
 21
-180.0591478234492
 31
0.0
 11
428.740851960622
 21
-180.0771977838072
 31
0.0
 11
428.5487580160815
 21
-180.1162032450489
 31
0.0
 11
428.3334678934522
 21
-180.1662933740913
 31
0.0
 11
427.6259436820674
 21
-180.3802559537745
 31
0.0
 11
426.9422227501091
 21
-180.664405524334
 31
0.0
 11
426.5561365529082
 21
-180.862138871492
 31
0.0
 11
426.2222610533681
 21
-181.0572118911752
 31
0.0
 11
425.8874325320996
 21
-181.2775184621746
 31
0.0
 11
425.5967593845189
 21
-181.4909434770375
 31
0.0
 11
425.2415390515337
 21
-181.7833314166554
 31
0.0
 11
424.9406118562143
 21
-182.062165876884
 31
0.0
 11
424.668446394295
 21
-182.343096242097
 31
0.0
 11
424.3893911079803
 21
-182.6647349181166
 31
0.0
 11
424.1169592298868
 21
-183.0186469832501
 31
0.0
 11
423.8356419296153
 21
-183.4367391610506
 31
0.0
 11
423.5581368390609
 21
-183.9200742776203
 31
0.0
 11
423.5389939099837
 21
-183.9567422678644
 31
0.0
 11
423.5201025919831
 21
-183.9934209645646
 31
0.0
 11
423.5014017377687
 21
-184.0302273855197
 31
0.0
 11
423.4829092285457
 21
-184.0671841352671
 31
0.0
  0
SPLINE
  5
263
330
1F
100
AcDbEntity
  8
0
  6
Continuous
 62
     2
100
AcDbSpline
210
0.0
220
0.0
230
1.0
 70
     8
 71
     3
 72
    35
 73
    31
 74
    29
 42
0.000000001
 43
0.0000000001
 44
0.00000001
 40
0.0
 40
0.0
 40
0.0
 40
0.0
 40
0.4371466658672902
 40
0.9269702935145884
 40
1.033826343366437
 40
1.153810987714813
 40
1.273191052335177
 40
1.373890784276983
 40
1.569904838948823
 40
1.790945237194925
 40
2.530114023297978
 40
3.270529643293393
 40
3.70430496379601
 40
4.0909913114692
 40
4.491796905216396
 40
4.85240904497044
 40
5.312487506558302
 40
5.72273844677945
 40
6.113885359117007
 40
6.539706086939682
 40
6.940348106408842
 40
7.312451689978174
 40
7.511355423724703
 40
7.68436578506411
 40
7.875952173648777
 40
8.047775956924797
 40
8.089140038121057
 40
8.130397941701197
 40
8.171682738984309
 40
8.213007963295802
 40
8.213007963295802
 40
8.213007963295802
 40
8.213007963295802
 10
641.6813808346609
 20
-179.9485893521536
 30
0.0
 10
641.827111761861
 20
-179.9511871452079
 30
0.0
 10
642.1361344553957
 20
-179.9566957855106
 30
0.0
 10
642.479539971746
 20
-179.990240321806
 30
0.0
 10
642.716298793343
 20
-180.022003443541
 30
0.0
 10
642.830431715359
 20
-180.0391549565753
 30
0.0
 10
642.9422463578182
 20
-180.0578055487317
 30
0.0
 10
643.0787011877562
 20
-180.0826677876614
 30
0.0
 10
643.2478582192546
 20
-180.1170158212711
 30
0.0
 10
643.6232734776952
 20
-180.2043590980655
 30
0.0
 10
644.1668871390987
 20
-180.3687452697617
 30
0.0
 10
644.7568507928506
 20
-180.6139611304761
 30
0.0
 10
645.2201801830822
 20
-180.8512638001662
 30
0.0
 10
645.5718308854415
 20
-181.0567239814634
 30
0.0
 10
645.8916948481782
 20
-181.267188546819
 30
0.0
 10
646.2200109352319
 20
-181.5082549610216
 30
0.0
 10
646.5370219176999
 20
-181.7691969908435
 30
0.0
 10
646.845611187201
 20
-182.0551376832168
 30
0.0
 10
647.1303766806744
 20
-182.3490780184693
 30
0.0
 10
647.3965032949336
 20
-182.6558219231626
 30
0.0
 10
647.64129166264
 20
-182.9718077967101
 30
0.0
 10
647.8261919561819
 20
-183.2379008145273
 30
0.0
 10
647.9598289337148
 20
-183.4468523433614
 30
0.0
 10
648.0570707482458
 20
-183.6075750921573
 30
0.0
 10
648.1458797076943
 20
-183.7627907120746
 30
0.0
 10
648.210023881481
 20
-183.8815077778837
 30
0.0
 10
648.2492781070606
 20
-183.9566927253823
 30
0.0
 10
648.2681847242845
 20
-183.9934137045671
 30
0.0
 10
648.2869070341708
 20
-184.0302146859743
 30
0.0
 10
648.2991965406918
 20
-184.0548569635639
 30
0.0
 10
648.3053442944891
 20
-184.0671841352479
 30
0.0
 11
641.6813808346609
 21
-179.9485893521536
 31
0.0
 11
642.1183264277784
 21
-179.9618466718838
 31
0.0
 11
642.6060234118733
 21
-180.0074409538649
 31
0.0
 11
642.7119259341548
 21
-180.0216842396087
 31
0.0
 11
642.8305799368733
 21
-180.0395039631792
 31
0.0
 11
642.9483327228695
 21
-180.0591478234762
 31
0.0
 11
643.0474015623952
 21
-180.0771977838021
 31
0.0
 11
643.2394955073461
 21
-180.1162032451321
 31
0.0
 11
643.4547856295625
 21
-180.166293374084
 31
0.0
 11
644.1623098410055
 21
-180.3802559537849
 31
0.0
 11
644.8460307728844
 21
-180.6644055243103
 31
0.0
 11
645.2321169707454
 21
-180.8621388718274
 31
0.0
 11
645.5659924696517
 21
-181.0572118911605
 31
0.0
 11
645.9008209911959
 21
-181.2775184623503
 31
0.0
 11
646.1914941385212
 21
-181.4909434770349
 31
0.0
 11
646.5467144705505
 21
-181.7833314158146
 31
0.0
 11
646.8476416668097
 21
-182.062165876865
 31
0.0
 11
647.1198071273643
 21
-182.343096240591
 31
0.0
 11
647.398862415035
 21
-182.664734918082
 31
0.0
 11
647.6442247950089
 21
-182.9814545582213
 31
0.0
 11
647.856561339117
 21
-183.2870265941739
 31
0.0
 11
647.9637300566691
 21
-183.4545901980804
 31
0.0
 11
648.0532897190166
 21
-183.6026160474888
 31
0.0
 11
648.1484355274254
 21
-183.7689068157438
 31
0.0
 11
648.2301166839454
 21
-183.9200742775491
 31
0.0
 11
648.2492595796919
 21
-183.9567422035153
 31
0.0
 11
648.2681509310402
 21
-183.9934209645245
 31
0.0
 11
648.2868517852603
 21
-184.0302273854903
 31
0.0
 11
648.3053442944891
 21
-184.0671841352479
 31
0.0
  0
SPLINE
  5
264
330
1F
100
AcDbEntity
  8
0
  6
Continuous
 62
     7
100
AcDbSpline
210
0.0
220
0.0
230
1.0
 70
     8
 71
     3
 72
    26
 73
    22
 74
    20
 42
0.000000001
 43
0.0000000001
 44
0.00000001
 40
0.0
 40
0.0
 40
0.0
 40
0.0
 40
0.039362725005792
 40
0.0672879311445048
 40
0.091307065087297
 40
0.1110504849731145
 40
0.1357346421970886
 40
0.1686509933886473
 40
0.2131521368314451
 40
0.2725861452270721
 40
0.3502818047449017
 40
0.3623478939766864
 40
0.3728719789313986
 40
0.3843206328083516
 40
0.3957692866864626
 40
0.4186665944465305
 40
0.4415639022119492
 40
0.4873585177613551
 40
0.5331531333392053
 40
0.7163315960898696
 40
0.899510053505025
 40
0.899510053505025
 40
0.899510053505025
 40
0.899510053505025
 10
636.1465726937809
 20
-174.0402654242035
 30
0.0
 10
636.1495324632174
 20
-174.0274642388059
 30
0.0
 10
636.1545919771875
 20
-174.0055814699368
 30
0.0
 10
636.1656633781002
 20
-173.977142574404
 30
0.0
 10
636.1761330324715
 20
-173.9556633845582
 30
0.0
 10
636.184902860046
 20
-173.9345765749053
 30
0.0
 10
636.1925740677245
 20
-173.9099245019019
 30
0.0
 10
636.2000111173774
 20
-173.8766852846553
 30
0.0
 10
636.2072979263435
 20
-173.8316350786076
 30
0.0
 10
636.2144739113601
 20
-173.7715068050837
 30
0.0
 10
636.2189388989179
 20
-173.7219702858458
 30
0.0
 10
636.2215918168706
 20
-173.6886472033981
 30
0.0
 10
636.2224660171411
 20
-173.6773346411818
 30
0.0
 10
636.2233291848701
 20
-173.6662276701276
 30
0.0
 10
636.2245101087327
 20
-173.6510085450518
 30
0.0
 10
636.225986881467
 20
-173.6319846887689
 30
0.0
 10
636.2283493725657
 20
-173.601546490731
 30
0.0
 10
636.2313026044252
 20
-173.563498752727
 30
0.0
 10
636.2383902641631
 20
-173.4721841735
 30
0.0
 10
636.2490217894402
 20
-173.3352123092621
 30
0.0
 10
636.2584720367547
 20
-173.213459541371
 30
0.0
 10
636.263197153645
 20
-173.152583157792
 30
0.0
 11
636.1465726937809
 21
-174.0402654242035
 31
0.0
 11
636.1565126697961
 21
-174.0021784054529
 31
0.0
 11
636.1665091874538
 21
-173.9761037671988
 31
0.0
 11
636.1765212664895
 21
-173.9542708319607
 31
0.0
 11
636.1840158857322
 21
-173.9360051999617
 31
0.0
 11
636.1914789183021
 21
-173.9124762652659
 31
0.0
 11
636.1988930756509
 21
-173.8804057733117
 31
0.0
 11
636.2062410692305
 21
-173.8365154695375
 31
0.0
 11
636.2135056104767
 21
-173.7775270995275
 31
0.0
 11
636.2206694108883
 21
-173.7001624082664
 31
0.0
 11
636.2216276482319
 21
-173.6881344288144
 31
0.0
 11
636.2224430092356
 21
-173.677641976773
 31
0.0
 11
636.2233289688966
 21
-173.6662276546213
 31
0.0
 11
636.2242149285577
 21
-173.6548133324696
 31
0.0
 11
636.2259868478798
 21
-173.6319846881661
 31
0.0
 11
636.227758767202
 21
-173.6091560438626
 31
0.0
 11
636.2313026058464
 21
-173.5634987552554
 31
0.0
 11
636.2348464444907
 21
-173.5178414666483
 31
0.0
 11
636.2490217990678
 21
-173.3352123122201
 31
0.0
 11
636.263197153645
 21
-173.152583157792
 31
0.0
  0
SPLINE
  5
265
330
1F
100
AcDbEntity
  8
0
  6
Continuous
 62
     7
100
AcDbSpline
210
0.0
220
0.0
230
1.0
 70
     8
 71
     3
 72
    15
 73
    11
 74
     9
 42
0.000000001
 43
0.0000000001
 44
0.00000001
 40
0.0
 40
0.0
 40
0.0
 40
0.0
 40
1.565881899119256
 40
3.131773606030326
 40
4.770577547281482
 40
6.431779763682222
 40
7.99800279015473
 40
9.564380532400486
 40
11.1308974611143
 40
12.6975168678384
 40
12.6975168678384
 40
12.6975168678384
 40
12.6975168678384
 10
650.8941267615226
 20
-187.158603363537
 30
0.0
 10
650.8619804697554
 20
-186.6370453291175
 30
0.0
 10
650.7976876705546
 20
-185.5939259949626
 30
0.0
 10
650.3518058158052
 20
-184.043580047584
 30
0.0
 10
649.4342598373756
 20
-182.682171811568
 30
0.0
 10
648.3068078983479
 20
-181.5149999207034
 30
0.0
 10
647.0883670008889
 20
-180.4681022589647
 30
0.0
 10
645.691325485787
 20
-179.7366939722212
 30
0.0
 10
644.1842721018825
 20
-179.2600100953915
 30
0.0
 10
643.1379938676718
 20
-179.2008006938747
 30
0.0
 10
642.6148376391216
 20
-179.1711950320496
 30
0.0
 11
650.8941267615226
 21
-187.158603363537
 31
0.0
 11
650.7405836627184
 21
-185.6002675058741
 31
0.0
 11
650.2858551839706
 21
-184.1018553950061
 31
0.0
 11
649.4033886602379
 21
-182.7209385984454
 31
0.0
 11
648.2655800384592
 21
-181.5105732191079
 31
0.0
 11
647.054633426487
 21
-180.5172641654257
 31
0.0
 11
645.6730534963622
 21
-179.7791746501663
 31
0.0
 11
644.1739218292066
 21
-179.3246644329245
 31
0.0
 11
642.6148376391216
 21
-179.1711950320496
 31
0.0
  0
SPLINE
  5
266
330
1F
100
AcDbEntity
  8
0
  6
Continuous
 62
     2
100
AcDbSpline
210
0.0
220
0.0
230
1.0
 70
     8
 71
     3
 72
    27
 73
    23
 74
    21
 42
0.000000001
 43
0.0000000001
 44
0.00000001
 40
0.0
 40
0.0
 40
0.0
 40
0.0
 40
0.2848455041437692
 40
0.5454646024650538
 40
0.8237921918962571
 40
1.06364028181907
 40
1.376162831924856
 40
1.725083782759747
 40
2.025534784629427
 40
2.314936147785065
 40
2.479341988682381
 40
2.661499741415522
 40
2.807654062419404
 40
2.970755698155353
 40
3.104341058517194
 40
3.263992966388332
 40
3.38473878844925
 40
3.491134208830616
 40
3.526744927176934
 40
3.570308948068933
 40
3.607350751327914
 40
3.635450394320066
 40
3.635450394320066
 40
3.635450394320066
 40
3.635450394320066
 10
641.3941267614838
 20
-179.9485893549449
 30
0.0
 10
641.2991686571419
 20
-179.9472897477476
 30
0.0
 10
641.1173287341496
 20
-179.9448010521633
 30
0.0
 10
640.8433122730416
 20
-179.9249928372466
 30
0.0
 10
640.5853273419483
 20
-179.8953983912777
 30
0.0
 10
640.3118401110892
 20
-179.8515663268851
 30
0.0
 10
640.0176034307215
 20
-179.7901795237882
 30
0.0
 10
639.7077644767828
 20
-179.7069037929018
 30
0.0
 10
639.4105066410531
 20
-179.6086911465641
 30
0.0
 10
639.1761034201307
 20
-179.5174329289677
 30
0.0
 10
638.9818444966558
 20
-179.4324996534502
 30
0.0
 10
638.8334890790293
 20
-179.3619564840326
 30
0.0
 10
638.687763329849
 20
-179.2871095856534
 30
0.0
 10
638.558476306943
 20
-179.2158178704005
 30
0.0
 10
638.427459913112
 20
-179.1385006509984
 30
0.0
 10
638.3107471419169
 20
-179.0648225657507
 30
0.0
 10
638.2038837735261
 20
-178.992660684105
 30
0.0
 10
638.1326668742473
 20
-178.9416571325326
 30
0.0
 10
638.083111418111
 20
-178.9046350472968
 30
0.0
 10
638.0523711594371
 20
-178.8810592623205
 30
0.0
 10
638.0239088081742
 20
-178.858631139832
 30
0.0
 10
638.0070928123765
 20
-178.8448934300049
 30
0.0
 10
637.9998390110958
 20
-178.8389674761718
 30
0.0
 11
641.3941267614838
 21
-179.9485893549449
 31
0.0
 11
641.109362362258
 21
-179.9417925185004
 31
0.0
 11
640.8493748206744
 21
-179.9236599112087
 31
0.0
 11
640.5728849451172
 21
-179.891728824704
 31
0.0
 11
640.336054342831
 21
-179.8538029583938
 31
0.0
 11
640.0301281256815
 21
-179.7899320426464
 31
0.0
 11
639.693176881122
 21
-179.6993247060249
 31
0.0
 11
639.4079064525664
 21
-179.6050294902242
 31
0.0
 11
639.1382396065903
 21
-179.4999916795755
 31
0.0
 11
638.987606916984
 21
-179.43412003562
 31
0.0
 11
638.82310866491
 21
-179.3558782814687
 31
0.0
 11
638.6931063526984
 21
-179.2890914230894
 31
0.0
 11
638.5502935469913
 21
-179.2103091522366
 31
0.0
 11
638.4352587509543
 21
-179.1423971189866
 31
0.0
 11
638.3002917303108
 21
-179.0571173728808
 31
0.0
 11
638.2002552644037
 21
-178.9894988912165
 31
0.0
 11
638.1137999317158
 21
-178.9274871106621
 31
0.0
 11
638.0852759259708
 21
-178.9061680030384
 31
0.0
 11
638.0507090488056
 21
-178.8796547070356
 31
0.0
 11
638.0216450781794
 21
-178.8566899345571
 31
0.0
 11
637.9998390110958
 21
-178.8389674761718
 31
0.0
  0
SPLINE
  5
267
330
1F
100
AcDbEntity
  8
0
  6
Continuous
 62
     2
100
AcDbSpline
210
0.0
220
0.0
230
1.0
 70
     8
 71
     3
 72
    35
 73
    31
 74
    29
 42
0.000000001
 43
0.0000000001
 44
0.00000001
 40
0.0
 40
0.0
 40
0.0
 40
0.0
 40
0.4330916615747369
 40
0.8657679255691839
 40
1.298729766952987
 40
1.732689234888854
 40
1.92899729003509
 40
2.110474838660057
 40
2.282243350417689
 40
2.474170309039641
 40
2.804551801519371
 40
3.168777789236689
 40
3.483300808365657
 40
3.831693290495505
 40
3.872200013558429
 40
3.912915387278205
 40
3.933892640101181
 40
3.953376598754833
 40
3.973402160707749
 40
3.993236267344514
 40
4.07590238663828
 40
4.145538161390242
 40
4.289294760159462
 40
4.421549126282951
 40
4.664988352652697
 40
4.906209353558245
 40
5.013514645892923
 40
5.140992685746341
 40
5.2488273901911
 40
5.388142970197122
 40
5.388142970197122
 40
5.388142970197122
 40
5.388142970197122
 10
637.9998390110958
 20
-178.8389674761718
 30
0.0
 10
637.8905482401332
 20
-178.7445255725572
 30
0.0
 10
637.6720715336252
 20
-178.5557323378792
 30
0.0
 10
637.3747878204153
 20
-178.2400425001879
 30
0.0
 10
637.1021401618522
 20
-177.9029489438627
 30
0.0
 10
636.9025433997724
 20
-177.609525129765
 30
0.0
 10
636.7637010342319
 20
-177.3772311971531
 30
0.0
 10
636.6753283350531
 20
-177.2167290878806
 30
0.0
 10
636.5929749806826
 20
-177.0547018133066
 30
0.0
 10
636.495208217142
 20
-176.844964790563
 30
0.0
 10
636.3835254952774
 20
-176.5711584338368
 30
0.0
 10
636.276913661536
 20
-176.2518369659287
 30
0.0
 10
636.1892897447332
 20
-175.9206742769725
 30
0.0
 10
636.1434565391783
 20
-175.6905206813439
 30
0.0
 10
636.1206222451107
 20
-175.5491487588986
 30
0.0
 10
636.1154462695137
 20
-175.5154773080968
 30
0.0
 10
636.1114894892376
 20
-175.4887092718828
 30
0.0
 10
636.108617289201
 20
-175.4687525757587
 30
0.0
 10
636.1058978325792
 20
-175.4491590865429
 30
0.0
 10
636.1004799371613
 20
-175.4086780700825
 30
0.0
 10
636.0935897131338
 20
-175.3517096029456
 30
0.0
 10
636.0836034909443
 20
-175.2535264876236
 30
0.0
 10
636.0750247414791
 20
-175.1386016421365
 30
0.0
 10
636.0681618784848
 20
-174.9655606554334
 30
0.0
 10
636.0696978473502
 20
-174.7597975128011
 30
0.0
 10
636.0821556864701
 20
-174.5627826184065
 30
0.0
 10
636.0973435514602
 20
-174.4048366619934
 30
0.0
 10
636.110538085326
 20
-174.2913877772233
 30
0.0
 10
636.1269662375964
 20
-174.1675903377891
 30
0.0
 10
636.1395048336642
 20
-174.0861642875668
 30
0.0
 10
636.1465726937809
 20
-174.0402654242035
 30
0.0
 11
637.9998390110958
 21
-178.8389674761718
 31
0.0
 11
637.6770464344448
 21
-178.5502230565064
 31
0.0
 11
637.3789859390694
 21
-178.2365852224715
 31
0.0
 11
637.1071210381574
 21
-177.8996201914171
 31
0.0
 11
636.8629152448955
 21
-177.5408941806926
 31
0.0
 11
636.76220831388
 21
-177.372386119618
 31
0.0
 11
636.6746759516124
 21
-177.2134138381069
 31
0.0
 11
636.5968475897561
 21
-177.0602891575469
 31
0.0
 11
636.5157602842806
 21
-176.8863328226902
 31
0.0
 11
636.3909837254571
 21
-176.5804198591165
 31
0.0
 11
636.2756378443421
 21
-176.234940629154
 31
0.0
 11
636.195186165951
 21
-175.9308810010441
 31
0.0
 11
636.1271428590868
 21
-175.5891977696293
 31
0.0
 11
636.1206839252324
 21
-175.5492093113467
 31
0.0
 11
636.114497740961
 21
-175.5089666375966
 31
0.0
 11
636.1114303750824
 21
-175.4882148568286
 31
0.0
 11
636.1086589395376
 21
-175.4689290124867
 31
0.0
 11
636.1059052190086
 21
-175.4490936864995
 31
0.0
 11
636.1032743425659
 21
-175.4294348391937
 31
0.0
 11
636.0933506796953
 21
-175.3473665247774
 31
0.0
 11
636.0863061166344
 21
-175.2780879907158
 31
0.0
 11
636.0756083591712
 21
-175.1347299850879
 31
0.0
 11
636.0703618376135
 21
-175.0025797242026
 31
0.0
 11
636.0719722184452
 21
-174.7591458237899
 31
0.0
 11
636.08678738031
 21
-174.5183802064467
 31
0.0
 11
636.0970237646502
 21
-174.4115642795208
 31
0.0
 11
636.1116634033965
 21
-174.2849296409065
 31
0.0
 11
636.1259094717605
 21
-174.1780401040273
 31
0.0
 11
636.1465726937809
 21
-174.0402654242035
 31
0.0
  0
SPLINE
  5
268
330
1F
100
AcDbEntity
  8
0
  6
Continuous
 62
     7
100
AcDbSpline
210
0.0
220
0.0
230
1.0
 70
     8
 71
     3
 72
    26
 73
    22
 74
    20
 42
0.000000001
 43
0.0000000001
 44
0.00000001
 40
0.0
 40
0.0
 40
0.0
 40
0.0
 40
0.1831784574149502
 40
0.3663569201654029
 40
0.412151535743177
 40
0.4579461512923059
 40
0.4808434590577856
 40
0.5037407668179341
 40
0.5151894206960079
 40
0.5266380745730831
 40
0.537162159546472
 40
0.5492282487594583
 40
0.6269239081865035
 40
0.6863579166728678
 40
0.730859060118385
 40
0.7637754113107532
 40
0.7884595685339073
 40
0.8082029884173859
 40
0.8322221223599304
 40
0.860147328498507
 40
0.8995100535044914
 40
0.8995100535044914
 40
0.8995100535044914
 40
0.8995100535044914
 10
435.5250563694257
 20
-173.1525831577921
 30
0.0
 10
435.529781486316
 20
-173.213459541371
 30
0.0
 10
435.53923173363
 20
-173.3352123092621
 30
0.0
 10
435.5498632589065
 20
-173.4721841734997
 30
0.0
 10
435.5569509186453
 20
-173.5634987527266
 30
0.0
 10
435.5599041505041
 20
-173.6015464907305
 30
0.0
 10
435.5622666416032
 20
-173.6319846887684
 30
0.0
 10
435.5637434143372
 20
-173.6510085450511
 30
0.0
 10
435.5649243381997
 20
-173.6662276701271
 30
0.0
 10
435.5657875059296
 20
-173.6773346411876
 30
0.0
 10
435.5666617061992
 20
-173.6886472034039
 30
0.0
 10
435.5693146241512
 20
-173.7219702858213
 30
0.0
 10
435.5737796117069
 20
-173.7715068050531
 30
0.0
 10
435.580955596721
 20
-173.8316350785782
 30
0.0
 10
435.588242405692
 20
-173.8766852846569
 30
0.0
 10
435.5956794553452
 20
-173.9099245019042
 30
0.0
 10
435.6033506630237
 20
-173.934576574907
 30
0.0
 10
435.6121204905976
 20
-173.9556633845589
 30
0.0
 10
435.6225901449686
 20
-173.9771425744038
 30
0.0
 10
435.6336615458803
 20
-174.0055814699369
 30
0.0
 10
435.6387210598506
 20
-174.0274642388059
 30
0.0
 10
435.6416808292873
 20
-174.0402654242036
 30
0.0
 11
435.5250563694257
 21
-173.1525831577921
 31
0.0
 11
435.5392317240024
 21
-173.3352123122201
 31
0.0
 11
435.5534070785794
 21
-173.517841466648
 31
0.0
 11
435.5569509172238
 21
-173.563498755255
 31
0.0
 11
435.560494755868
 21
-173.609156043862
 31
0.0
 11
435.5622666751902
 21
-173.6319846881655
 31
0.0
 11
435.5640385945122
 21
-173.6548133324691
 31
0.0
 11
435.5649245541733
 21
-173.6662276546208
 31
0.0
 11
435.5658105138344
 21
-173.6776419767726
 31
0.0
 11
435.5666258748392
 21
-173.6881344288326
 31
0.0
 11
435.5675841121816
 21
-173.7001624082659
 31
0.0
 11
435.5747479125835
 21
-173.7775270994367
 31
0.0
 11
435.5820124538388
 21
-173.836515469537
 31
0.0
 11
435.5893604474187
 21
-173.8804057733139
 31
0.0
 11
435.5967746047679
 21
-173.9124762652689
 31
0.0
 11
435.6042376373377
 21
-173.9360051999638
 31
0.0
 11
435.6117322565793
 21
-173.9542708319607
 31
0.0
 11
435.6217443356148
 21
-173.9761037671986
 31
0.0
 11
435.631740853272
 21
-174.0021784054528
 31
0.0
 11
435.6416808292873
 21
-174.0402654242036
 31
0.0
  0
SPLINE
  5
269
330
1F
100
AcDbEntity
  8
0
  6
Continuous
 62
     7
100
AcDbSpline
210
0.0
220
0.0
230
1.0
 70
     8
 71
     3
 72
    11
 73
     7
 74
     5
 42
0.000000001
 43
0.0000000001
 44
0.00000001
 40
0.0
 40
0.0
 40
0.0
 40
0.0
 40
0.1503307745824055
 40
0.3113893214540139
 40
0.4827190128092841
 40
0.6638055835212351
 40
0.6638055835212351
 40
0.6638055835212351
 40
0.6638055835212351
 10
422.7158388507008
 20
-187.3116830324706
 30
0.0
 10
422.7186391302617
 20
-187.261650250187
 30
0.0
 10
422.7244395356943
 20
-187.1580142911995
 30
0.0
 10
422.7362176967564
 20
-186.9975331134552
 30
0.0
 10
422.7511265180835
 20
-186.8270129123715
 30
0.0
 10
422.7641095523568
 20
-186.7102566423603
 30
0.0
 10
422.770780799066
 20
-186.6502622705373
 30
0.0
 11
422.7158388507008
 21
-187.3116830324706
 31
0.0
 11
422.7246586104601
 21
-187.161611204183
 31
0.0
 11
422.7363288357811
 21
-187.0009760230695
 31
0.0
 11
422.7514933102222
 21
-186.8303187586115
 31
0.0
 11
422.770780799066
 21
-186.6502622705373
 31
0.0
  0
SPLINE
  5
26A
330
1F
100
AcDbEntity
  8
0
  6
Continuous
 62
     7
100
AcDbSpline
210
0.0
220
0.0
230
1.0
 70
     8
 71
     3
 72
    41
 73
    37
 74
    35
 42
0.000000001
 43
0.0000000001
 44
0.00000001
 40
0.0
 40
0.0
 40
0.0
 40
0.0
 40
0.046503486719203
 40
0.0938601738536804
 40
0.2329619917866786
 40
0.3799863957803304
 40
0.537981943434579
 40
0.6823825282952065
 40
0.8261054707545475
 40
0.9952529068369133
 40
1.064312288629519
 40
1.154703491415936
 40
1.189095715590035
 40
1.235272615606185
 40
1.277057828246246
 40
1.316257047728472
 40
1.38675049688571
 40
1.477250929186225
 40
1.5619353625859
 40
1.638523433706611
 40
1.706811182742189
 40
1.799178018520905
 40
1.818667182994147
 40
1.839142776636006
 40
1.855306442887863
 40
1.879001621907349
 40
1.91717806231113
 40
1.958350381586029
 40
1.994384185537071
 40
2.052544017928517
 40
2.09963414304992
 40
2.146234495766396
 40
2.234851106385149
 40
2.331467843710966
 40
2.521780880110744
 40
2.687305789826707
 40
2.687305789826707
 40
2.687305789826707
 40
2.687305789826707
 10
423.4829092285457
 20
-184.0671841352671
 30
0.0
 10
423.4766017804624
 20
-184.0813441601661
 30
0.0
 10
423.4638711808286
 20
-184.1099240127571
 30
0.0
 10
423.4331507597436
 20
-184.1812446654151
 30
0.0
 10
423.3909356991003
 20
-184.2840906260338
 30
0.0
 10
423.3378875433295
 20
-184.422311910877
 30
0.0
 10
423.286989178794
 20
-184.5632164287792
 30
0.0
 10
423.2387452292436
 20
-184.7038846545196
 30
0.0
 10
423.1912001655461
 20
-184.8487071808295
 30
0.0
 10
423.1530210213617
 20
-184.9701615509848
 30
0.0
 10
423.1210579146955
 20
-185.074927102812
 30
0.0
 10
423.1025691892193
 20
-185.1368403140855
 30
0.0
 10
423.0865028072971
 20
-185.1915154164851
 30
0.0
 10
423.0751136549386
 20
-185.2306777956008
 30
0.0
 10
423.0634029957242
 20
-185.2714151595266
 30
0.0
 10
423.0495945541757
 20
-185.3199830346555
 30
0.0
 10
423.03160076475
 20
-185.3842426152558
 30
0.0
 10
423.0099889529142
 20
-185.4632329077853
 30
0.0
 10
422.9884002161049
 20
-185.5443336115897
 30
0.0
 10
422.9692074876669
 20
-185.6184082311134
 30
0.0
 10
422.9498681043171
 20
-185.6950883981395
 30
0.0
 10
422.93562565462
 20
-185.753423734634
 30
0.0
 10
422.9253794452753
 20
-185.7963277474676
 30
0.0
 10
422.921066438706
 20
-185.8145333211158
 30
0.0
 10
422.9164627715206
 20
-185.8341108134688
 30
0.0
 10
422.9105687698791
 20
-185.8594460506108
 30
0.0
 10
422.9029046465251
 20
-185.8929281737169
 30
0.0
 10
422.8944928758752
 20
-185.9304580410474
 30
0.0
 10
422.8848170823252
 20
-185.9745305002025
 30
0.0
 10
422.8749591620199
 20
-186.0205821828648
 30
0.0
 10
422.86467749781
 20
-186.0701440185286
 30
0.0
 10
422.8526833566764
 20
-186.1297178424938
 30
0.0
 10
422.8380833347492
 20
-186.2056065570178
 30
0.0
 10
422.8160359269676
 20
-186.3288325609782
 30
0.0
 10
422.7922415685041
 20
-186.4777956581917
 30
0.0
 10
422.7775942653284
 20
-186.595506699384
 30
0.0
 10
422.770780799066
 20
-186.6502622705373
 30
0.0
 11
423.4829092285457
 21
-184.0671841352671
 31
0.0
 11
423.4640736382416
 21
-184.1097023053164
 31
0.0
 11
423.445312601579
 21
-184.15318424796
 31
0.0
 11
423.392421682678
 21
-184.2818383052428
 31
0.0
 11
423.3396367995526
 21
-184.4190605025851
 31
0.0
 11
423.2858714969525
 21
-184.5676265998981
 31
0.0
 11
423.2389734316715
 21
-184.704199292434
 31
0.0
 11
423.194108577689
 21
-184.840740235137
 31
0.0
 11
423.1433392608656
 21
-185.0020887137814
 31
0.0
 11
423.1231894597688
 21
-185.0681431135036
 31
0.0
 11
423.0973198651466
 21
-185.1547533531066
 31
0.0
 11
423.0876234314742
 21
-185.1877503871565
 31
0.0
 11
423.0747288806767
 21
-185.2320903990196
 31
0.0
 11
423.0631850074071
 21
-185.2722493704088
 31
0.0
 11
423.0524651612894
 21
-185.3099543263863
 31
0.0
 11
423.0334581312623
 21
-185.3778370132616
 31
0.0
 11
423.0095811818629
 21
-185.4651308820275
 31
0.0
 11
422.9878011653142
 21
-185.5469665963043
 31
0.0
 11
422.9685981233641
 21
-185.6211081892979
 31
0.0
 11
422.9519022572078
 21
-185.6873234799573
 31
0.0
 11
422.9299884167372
 21
-185.7770531625637
 31
0.0
 11
422.9254614069296
 21
-185.7960092622105
 31
0.0
 11
422.9207412830169
 21
-185.8159333773729
 31
0.0
 11
422.9170425179174
 21
-185.8316681555193
 31
0.0
 11
422.9116730090289
 21
-185.8547469311115
 31
0.0
 11
422.9031545537538
 21
-185.8919608602404
 31
0.0
 11
422.8941495480726
 21
-185.9321363471327
 31
0.0
 11
422.8864221347376
 21
-185.9673318313689
 31
0.0
 11
422.8742531511089
 21
-186.0242043374145
 31
0.0
 11
422.8646897489311
 21
-186.0703131351273
 31
0.0
 11
422.8554928548111
 21
-186.1159969398993
 31
0.0
 11
422.8387681333787
 21
-186.2030210022538
 31
0.0
 11
422.821735657061
 21
-186.2981245723451
 31
0.0
 11
422.7921010267131
 21
-186.4861161666159
 31
0.0
 11
422.770780799066
 21
-186.6502622705373
 31
0.0
  0
SPLINE
  5
26B
330
1F
100
AcDbEntity
  8
0
  6
Continuous
 62
     7
100
AcDbSpline
210
0.0
220
0.0
230
1.0
 70
     8
 71
     3
 72
    11
 73
     7
 74
     5
 42
0.000000001
 43
0.0000000001
 44
0.00000001
 40
0.0
 40
0.0
 40
0.0
 40
0.0
 40
0.1832136796506705
 40
0.3392180895284436
 40
0.4878825097860989
 40
0.6644259699672745
 40
0.6644259699672745
 40
0.6644259699672745
 40
0.6644259699672745
 10
422.770780799066
 20
-186.6502622705373
 30
0.0
 10
422.7654749500618
 20
-186.7111052757123
 30
0.0
 10
422.7556512438964
 20
-186.8237554240392
 30
0.0
 10
422.7457510471366
 20
-186.9860940367665
 30
0.0
 10
422.7383529754291
 20
-187.1463369115663
 30
0.0
 10
422.73588431
 20
-187.2547153657875
 30
0.0
 10
422.7345441695538
 20
-187.3135500636494
 30
0.0
 11
422.770780799066
 21
-186.6502622705373
 31
0.0
 11
422.7557209658005
 21
-186.832855955731
 31
0.0
 11
422.7459949777611
 21
-186.9885568905849
 31
0.0
 11
422.7393104903222
 21
-187.1370709556707
 31
0.0
 11
422.7345441695538
 21
-187.3135500636494
 31
0.0
  0
SPLINE
  5
26C
330
1F
100
AcDbEntity
  8
0
  6
Continuous
 62
     2
100
AcDbSpline
210
0.0
220
0.0
230
1.0
 70
     8
 71
     3
 72
     9
 73
     5
 74
     3
 42
0.000000001
 43
0.0000000001
 44
0.00000001
 40
0.0
 40
0.0
 40
0.0
 40
0.0
 40
1.217434103991215
 40
2.443213130402329
 40
2.443213130402329
 40
2.443213130402329
 40
2.443213130402329
 10
422.6406323519992
 20
-191.5431503714411
 30
0.0
 10
422.7252358388575
 20
-191.9609321139004
 30
0.0
 10
422.895022745103
 20
-192.7993592823063
 30
0.0
 10
423.6363412833746
 20
-193.2269088524468
 30
0.0
 10
424.0082665653271
 20
-193.441413790006
 30
0.0
 11
422.6406323519992
 21
-191.5431503714411
 31
0.0
 11
423.0363513476774
 21
-192.6944766853223
 31
0.0
 11
424.0082665653271
 21
-193.441413790006
 31
0.0
  0
SPLINE
  5
26D
330
1F
100
AcDbEntity
  8
0
  6
Continuous
 62
     2
100
AcDbSpline
210
0.0
220
0.0
230
1.0
 70
     8
 71
     3
 72
    42
 73
    38
 74
    36
 42
0.000000001
 43
0.0000000001
 44
0.00000001
 40
0.0
 40
0.0
 40
0.0
 40
0.0
 40
0.3755614498935218
 40
0.7585054206940761
 40
1.135731447284523
 40
1.321587848457834
 40
1.500820881594
 40
1.671701344874189
 40
1.767790459983673
 40
1.860029610456413
 40
1.904596066554402
 40
1.948069487491244
 40
1.969378254895909
 40
1.990406035888002
 40
2.001076575404796
 40
2.011151923432834
 40
2.021466886498665
 40
2.031811369517412
 40
2.182840971907893
 40
2.321227783974897
 40
2.446542565273749
 40
2.55835571045401
 40
2.770936122445637
 40
2.963632877498488
 40
3.136658550813126
 40
3.290224464097824
 40
3.424540663674532
 40
3.57383987623009
 40
3.704913740002465
 40
3.818179208709459
 40
3.914051650533308
 40
3.992944794864663
 40
4.055270717642875
 40
4.101439969362227
 40
4.131862173545652
 40
4.184437191556329
 40
4.233143913711404
 40
4.233143913711404
 40
4.233143913711404
 40
4.233143913711404
 10
422.7345441695538
 20
-187.3135500636494
 30
0.0
 10
422.7358402332017
 20
-187.4387311655137
 30
0.0
 10
422.7384578228986
 20
-187.6915540908296
 30
0.0
 10
422.7458067559653
 20
-188.0700627635925
 30
0.0
 10
422.7518681822756
 20
-188.3853462551064
 30
0.0
 10
422.7558018146888
 20
-188.6327539966825
 30
0.0
 10
422.7579083167611
 20
-188.8113988338263
 30
0.0
 10
422.7587738319623
 20
-188.9601319945299
 30
0.0
 10
422.7586551792637
 20
-189.0798687266011
 30
0.0
 10
422.7581070665342
 20
-189.1574990287596
 30
0.0
 10
422.7573480268536
 20
-189.2175873736971
 30
0.0
 10
422.7567399047301
 20
-189.254031973992
 30
0.0
 10
422.7561662485803
 20
-189.2826295644963
 30
0.0
 10
422.7557706671138
 20
-189.3002941845692
 30
0.0
 10
422.7554323893834
 20
-189.3142146346086
 30
0.0
 10
422.7551690870241
 20
-189.3245649036773
 30
0.0
 10
422.7549087415063
 20
-189.3348065264188
 30
0.0
 10
422.7534415370518
 20
-189.3920173985103
 30
0.0
 10
422.7507437759213
 20
-189.4919014072629
 30
0.0
 10
422.7466565386538
 20
-189.6300848407681
 30
0.0
 10
422.7426521114618
 20
-189.7551924748299
 30
0.0
 10
422.737514291357
 20
-189.9050072727316
 30
0.0
 10
422.7310475965892
 20
-190.077249977736
 30
0.0
 10
422.7229609349223
 20
-190.2698485148235
 30
0.0
 10
422.7149373241105
 20
-190.4427591240138
 30
0.0
 10
422.7071486685959
 20
-190.596197984296
 30
0.0
 10
422.6991435106764
 20
-190.7417054517429
 30
0.0
 10
422.6909128168788
 20
-190.879690586465
 30
0.0
 10
422.6824238387783
 20
-191.0106291235308
 30
0.0
 10
422.6745093794438
 20
-191.1237570159173
 30
0.0
 10
422.6673358008187
 20
-191.219499385443
 30
0.0
 10
422.6610646713037
 20
-191.298280914079
 30
0.0
 10
422.6558669345905
 20
-191.3605272234027
 30
0.0
 10
422.6518802589566
 20
-191.4066609993341
 30
0.0
 10
422.648237014332
 20
-191.4495623600872
 30
0.0
 10
422.6450788291183
 20
-191.4933515104775
 30
0.0
 10
422.6420762803398
 20
-191.5269788652427
 30
0.0
 10
422.6406323519992
 20
-191.5431503714411
 30
0.0
 11
422.7345441695538
 21
-187.3135500636494
 31
0.0
 11
422.7389938741493
 21
-187.6890851515145
 31
0.0
 11
422.7458315318219
 21
-188.0719680728962
 31
0.0
 11
422.7528143087836
 21
-188.4491294654328
 31
0.0
 11
422.7557074078256
 21
-188.6349633478272
 31
0.0
 11
422.7577585148671
 21
-188.8141846443748
 31
0.0
 11
422.7586706275512
 21
-188.9850626733544
 31
0.0
 11
422.7585547285586
 21
-189.0811517185734
 31
0.0
 11
422.7578793987498
 21
-189.1733883967949
 31
0.0
 11
422.7573129574304
 21
-189.2179512529974
 31
0.0
 11
422.7565838623963
 21
-189.2614185596495
 31
0.0
 11
422.7561560401736
 21
-189.2827230318601
 31
0.0
 11
422.7556845243532
 21
-189.3037455256688
 31
0.0
 11
422.7554254988823
 21
-189.3144129208185
 31
0.0
 11
422.7551711594704
 21
-189.3244850580915
 31
0.0
 11
422.7549086153045
 21
-189.3347966793754
 31
0.0
 11
422.7546434999252
 21
-189.3451377645529
 31
0.0
 11
422.750562584346
 21
-189.4961122223269
 31
0.0
 11
422.7464689922263
 21
-189.6344384751916
 31
0.0
 11
422.7424577484542
 21
-189.7596890412996
 31
0.0
 11
422.738623877918
 21
-189.8714364388034
 31
0.0
 11
422.7306341933448
 21
-190.0838666541762
 31
0.0
 11
422.7225368559754
 21
-190.2763932041278
 31
0.0
 11
422.7145039833121
 21
-190.449232309934
 31
0.0
 11
422.7067076928569
 21
-190.6026001928701
 31
0.0
 11
422.6993201021119
 21
-190.736713074212
 31
0.0
 11
422.6904145432327
 21
-190.8857464459475
 31
0.0
 11
422.6819204166399
 21
-191.0165447930419
 31
0.0
 11
422.67400403012
 21
-191.1295332757373
 31
0.0
 11
422.6668316914601
 21
-191.2251370542761
 31
0.0
 11
422.6605697084468
 21
-191.3037812889005
 31
0.0
 11
422.6553843888668
 21
-191.3658911398525
 31
0.0
 11
422.651442040507
 21
-191.4118917673745
 31
0.0
 11
422.6489089711541
 21
-191.4422083317085
 31
0.0
 11
422.6448314236752
 21
-191.494624990498
 31
0.0
 11
422.6406323519992
 21
-191.5431503714411
 31
0.0
  0
SPLINE
  5
26E
330
1F
100
AcDbEntity
  8
0
  6
Continuous
 62
     7
100
AcDbSpline
210
0.0
220
0.0
230
1.0
 70
     8
 71
     3
 72
    15
 73
    11
 74
     9
 42
0.000000001
 43
0.0000000001
 44
0.00000001
 40
0.0
 40
0.0
 40
0.0
 40
0.0
 40
1.372021433384795
 40
2.743873489505824
 40
4.115595912505402
 40
5.48724817872658
 40
6.858900444947679
 40
8.23062286794726
 40
9.602474924068197
 40
10.97449635745304
 40
10.97449635745304
 40
10.97449635745304
 40
10.97449635745304
 10
427.8917280363515
 20
-348.5402654242109
 30
0.0
 10
427.4336545135023
 20
-348.5142307803456
 30
0.0
 10
426.5175640188135
 20
-348.4621646922214
 30
0.0
 10
425.1962962899274
 20
-348.0461576725702
 30
0.0
 10
423.9786034978353
 20
-347.3995406047496
 30
0.0
 10
422.9117159748569
 20
-346.5226762108766
 30
0.0
 10
422.0348515809836
 20
-345.455788687898
 30
0.0
 10
421.3882345131631
 20
-344.2380958958061
 30
0.0
 10
420.9722274935118
 20
-342.91682816692
 30
0.0
 10
420.9201614053876
 20
-342.0007376722312
 30
0.0
 10
420.8941267615224
 20
-341.542664149382
 30
0.0
 11
427.8917280363515
 21
-348.5402654242109
 31
0.0
 11
426.52630842091
 21
-348.4058329423862
 31
0.0
 11
425.2134995997296
 21
-348.0076984570819
 31
0.0
 11
424.003708590338
 21
-347.3611475125714
 31
0.0
 11
422.943385949355
 21
-346.4910062363783
 31
0.0
 11
422.0732446731619
 21
-345.4306835953954
 31
0.0
 11
421.4266937286513
 21
-344.2208925860038
 31
0.0
 11
421.028559243347
 21
-342.9080837648235
 31
0.0
 11
420.8941267615224
 21
-341.542664149382
 31
0.0
  0
ARC
  5
26F
330
1F
100
AcDbEntity
  8
1
  6
Continuous
 62
     7
100
AcDbCircle
 10
1117.884719958075
 20
-178.6841165965887
 30
0.0
 40
0.5
100
AcDbArc
 50
179.9999999999902
 51
268.4999999999843
  0
MTEXT
  5
270
330
1F
100
AcDbEntity
  8
1
 62
     7
100
AcDbMText
 10
1318.990271054005
 20
-843.9611999568604
 30
0.0
 40
22.5
 41
0.0
 71
     5
 72
     1
  1
1:5
  7
CONVERTER_11
 73
     1
 44
1.32052821128451
  0
MTEXT
  5
271
330
1F
100
AcDbEntity
  8
1
 62
     7
100
AcDbMText
 10
756.9902710540048
 20
-831.7643970606406
 30
0.0
 40
22.5
 41
0.0
 71
     4
 72
     1
  1
TM 2318 R2\PDOUBLE MODULAR COVER TM
  7
CONVERTER_11
 73
     1
 44
0.90036014405762
  0
MTEXT
  5
272
330
1F
100
AcDbEntity
  8
1
 62
     7
100
AcDbMText
 10
633.6087676102911
 20
-856.7643970606412
 30
0.0
 40
15.0
 41
0.0
 71
     4
 72
     1
  1
ROTELLA
  7
CONVERTER_11
 73
     1
 44
1.32052821128451
  0
MTEXT
  5
273
330
1F
100
AcDbEntity
  8
1
 62
     7
100
AcDbMText
 10
633.6087676102911
 20
-831.7643970606412
 30
0.0
 40
15.0
 41
0.0
 71
     4
 72
     1
  1
16/09/11
  7
CONVERTER_11
 73
     1
 44
1.32052821128451
  0
DIMENSION
  5
27F
330
1F
100
AcDbEntity
  8
1
100
AcDbDimension
  2
*D3
 10
722.3396657756841
 20
-164.540265424196
 30
0.0
 11
704.8396657756841
 21
-256.5402654242034
 31
0.0
 70
    32
  1
<>
 71
     5
 42
-1.0
 53
90.0
  3
ME10_DIM_10
100
AcDbAlignedDimension
 13
643.8965254866937
 23
-348.5402654242109
 33
0.0
 14
643.8965254866938
 24
-164.540265424196
 34
0.0
 50
90.0
100
AcDbRotatedDimension
  0
DIMENSION
  5
28A
330
1F
100
AcDbEntity
  8
1
100
AcDbDimension
  2
*D4
 10
420.8941267615224
 20
-415.8448721767952
 30
0.0
 11
535.8941267615226
 21
-398.3448721767952
 31
0.0
 70
    32
  1
<>
 71
     5
 42
-1.0
 53
0.00013888888889
  3
ME10_DIM_11
100
AcDbAlignedDimension
 13
650.8941267615226
 23
-341.5426641493819
 33
0.0
 14
420.8941267615224
 24
-341.542664149382
 34
0.0
100
AcDbRotatedDimension
  0
DIMENSION
  5
296
330
1F
100
AcDbEntity
  8
1
100
AcDbDimension
  2
*D5
 10
1106.384719958075
 20
-416.5948721767952
 30
0.0
 11
1070.834719957995
 21
-398.3448721767952
 31
0.0
 70
    32
  1
<>
 71
     5
 42
-1.0
 53
0.00013888888889
  3
ME10_DIM_12
100
AcDbAlignedDimension
 13
1152.884719957915
 23
-338.8000275886798
 33
0.0
 14
1106.384719958075
 24
-348.5402654242109
 34
0.0
100
AcDbRotatedDimension
  0
HATCH
  5
297
330
1F
100
AcDbEntity
  8
1
  6
Continuous
 62
     3
100
AcDbHatch
 10
0.0
 20
0.0
 30
0.0
210
0.0
220
0.0
230
1.0
  2
_USER
 70
     0
 71
     1
 91
        2
 92
        1
 93
        6
 72
     1
 10
636.7703242010873
 20
-214.5675242518676
 11
628.3538889259457
 21
-219.4231599875268
 72
     1
 10
628.3538889259457
 20
-219.4231599875268
 11
619.9374536508042
 21
-214.5675242518676
 72
     2
 10
620.0207407263858
 20
-214.4231599875268
 40
0.1666666666664923
 50
119.981639368975
 51
240.0183606310885
 73
     0
 72
     1
 10
619.9374536508042
 20
-214.2787957231856
 11
628.3538889259457
 21
-209.4231599875266
 72
     1
 10
628.3538889259457
 20
-209.4231599875266
 11
636.7703242010873
 21
-214.2787957231856
 72
     2
 10
636.6870371255056
 20
-214.4231599875268
 40
0.1666666666661722
 50
299.9816393689115
 51
420.018360631025
 73
     0
 97
        6
330
A9
330
AD
330
1E4
330
AB
330
A7
330
1E6
 92
       16
 93
        6
 72
     2
 10
636.6870371255056
 20
-214.4231599875268
 40
0.0666666666666193
 50
299.9816393687199
 51
420.0183606310148
 73
     1
 72
     1
 10
636.7203519557386
 20
-214.36541428179
 11
628.3538889259457
 21
-209.5386086876795
 72
     1
 10
628.3538889259457
 20
-209.5386086876795
 11
619.9874258961534
 21
-214.3654142817907
 72
     2
 10
620.0207407263858
 20
-214.4231599875268
 40
0.0666666666661761
 50
119.9816393689397
 51
240.01836063128
 73
     1
 72
     1
 10
619.9874258961534
 20
-214.4809056932634
 11
628.3538889259457
 21
-219.3077112873746
 72
     1
 10
628.3538889259457
 20
-219.3077112873746
 11
636.7203519557381
 21
-214.4809056932634
 97
        6
330
1E7
330
A8
330
AC
330
1E5
330
AA
330
A6
 75
     1
 76
     0
 52
45.0
 41
0.05
 77
     0
 78
     1
 53
45.0
 43
0.0
 44
0.0
 45
-0.0353553390593274
 46
0.0353553390593274
 79
     0
 98
        1
 10
0.0
 20
0.0
  0
ENDSEC
  0
SECTION
  2
OBJECTS
  0
DICTIONARY
  5
C
330
0
100
AcDbDictionary
281
     1
  3
ACAD_GROUP
350
D
  3
ACAD_LAYOUT
350
1A
  3
ACAD_MATERIAL
350
3B
  3
ACAD_MLEADERSTYLE
350
29A
  3
ACAD_MLINESTYLE
350
17
  3
ACAD_PLOTSETTINGS
350
19
  3
ACAD_PLOTSTYLENAME
350
E
  3
ACAD_VISUALSTYLE
350
2A
  3
AcDbVariableDictionary
350
298
  0
DICTIONARY
  5
D
102
{ACAD_REACTORS
330
C
102
}
330
C
100
AcDbDictionary
281
     1
  0
DICTIONARY
  5
1A
102
{ACAD_REACTORS
330
C
102
}
330
C
100
AcDbDictionary
281
     1
  3
Layout1
350
1E
  3
Layout2
350
26
  3
Model
350
22
  0
DICTIONARY
  5
3B
102
{ACAD_REACTORS
330
C
102
}
330
C
100
AcDbDictionary
281
     1
  3
ByBlock
350
3D
  3
ByLayer
350
3C
  3
Global
350
3E
  0
DICTIONARY
  5
29A
102
{ACAD_REACTORS
330
C
102
}
330
C
100
AcDbDictionary
281
     1
  0
DICTIONARY
  5
17
102
{ACAD_REACTORS
330
C
102
}
330
C
100
AcDbDictionary
281
     1
  3
Standard
350
18
  0
DICTIONARY
  5
19
102
{ACAD_REACTORS
330
C
102
}
330
C
100
AcDbDictionary
281
     1
  0
ACDBDICTIONARYWDFLT
  5
E
102
{ACAD_REACTORS
330
C
102
}
330
C
100
AcDbDictionary
281
     1
  3
Normal
350
F
100
AcDbDictionaryWithDefault
340
F
  0
DICTIONARY
  5
2A
102
{ACAD_REACTORS
330
C
102
}
330
C
100
AcDbDictionary
281
     1
  3
2dWireframe
350
2F
  3
3D Hidden
350
31
  3
3dWireframe
350
30
  3
Basic
350
32
  3
Brighten
350
36
  3
ColorChange
350
3A
  3
Conceptual
350
34
  3
Dim
350
35
  3
Facepattern
350
39
  3
Flat
350
2B
  3
FlatWithEdges
350
2C
  3
Gouraud
350
2D
  3
GouraudWithEdges
350
2E
  3
Linepattern
350
38
  3
Realistic
350
33
  3
Thicken
350
37
  0
DICTIONARY
  5
298
102
{ACAD_REACTORS
330
C
102
}
330
C
100
AcDbDictionary
281
     1
  3
DIMASSOC
350
29B
  3
HIDETEXT
350
29C
  0
LAYOUT
  5
1E
102
{ACAD_REACTORS
330
1A
102
}
330
1A
100
AcDbPlotSettings
  1

  2
none_device
  4

  6

 40
0.0
 41
0.0
 42
0.0
 43
0.0
 44
0.0
 45
0.0
 46
0.0
 47
0.0
 48
0.0
 49
0.0
140
0.0
141
0.0
142
1.0
143
1.0
 70
   688
 72
     0
 73
     0
 74
     5
  7

 75
    16
147
1.0
148
0.0
149
0.0
100
AcDbLayout
  1
Layout1
 70
     1
 71
     1
 10
0.0
 20
0.0
 11
12.0
 21
9.0
 12
0.0
 22
0.0
 32
0.0
 14
1.00000000000000E+20
 24
1.00000000000000E+20
 34
1.00000000000000E+20
 15
-1.00000000000000E+20
 25
-1.00000000000000E+20
 35
-1.00000000000000E+20
146
0.0
 13
0.0
 23
0.0
 33
0.0
 16
1.0
 26
0.0
 36
0.0
 17
0.0
 27
1.0
 37
0.0
 76
     0
330
1B
  0
LAYOUT
  5
26
102
{ACAD_REACTORS
330
1A
102
}
330
1A
100
AcDbPlotSettings
  1

  2
none_device
  4

  6

 40
0.0
 41
0.0
 42
0.0
 43
0.0
 44
0.0
 45
0.0
 46
0.0
 47
0.0
 48
0.0
 49
0.0
140
0.0
141
0.0
142
1.0
143
1.0
 70
   688
 72
     0
 73
     0
 74
     5
  7

 75
    16
147
1.0
148
0.0
149
0.0
100
AcDbLayout
  1
Layout2
 70
     1
 71
     2
 10
0.0
 20
0.0
 11
0.0
 21
0.0
 12
0.0
 22
0.0
 32
0.0
 14
0.0
 24
0.0
 34
0.0
 15
0.0
 25
0.0
 35
0.0
146
0.0
 13
0.0
 23
0.0
 33
0.0
 16
1.0
 26
0.0
 36
0.0
 17
0.0
 27
1.0
 37
0.0
 76
     0
330
23
  0
LAYOUT
  5
22
102
{ACAD_REACTORS
330
1A
102
}
330
1A
100
AcDbPlotSettings
  1

  2
none_device
  4

  6

 40
0.0
 41
0.0
 42
0.0
 43
0.0
 44
0.0
 45
0.0
 46
0.0
 47
0.0
 48
0.0
 49
0.0
140
0.0
141
0.0
142
1.0
143
1.0
 70
  1712
 72
     0
 73
     0
 74
     0
  7

 75
     0
147
1.0
148
0.0
149
0.0
100
AcDbLayout
  1
Model
 70
     1
 71
     0
 10
0.0
 20
0.0
 11
12.0
 21
9.0
 12
0.0
 22
0.0
 32
0.0
 14
35.60876761029064
 24
-894.2643970606405
 34
0.0
 15
1520.608767610291
 25
155.73560293936
 35
0.0
146
0.0
 13
0.0
 23
0.0
 33
0.0
 16
1.0
 26
0.0
 36
0.0
 17
0.0
 27
1.0
 37
0.0
 76
     0
330
1F
331
29
  0
MATERIAL
  5
3D
102
{ACAD_REACTORS
330
3B
102
}
102
{ACAD_XDICTIONARY
360
2BF
102
}
330
3B
100
AcDbMaterial
  1
ByBlock
  0
MATERIAL
  5
3C
102
{ACAD_REACTORS
330
3B
102
}
102
{ACAD_XDICTIONARY
360
2BD
102
}
330
3B
100
AcDbMaterial
  1
ByLayer
  0
MATERIAL
  5
3E
102
{ACAD_REACTORS
330
3B
102
}
102
{ACAD_XDICTIONARY
360
2C1
102
}
330
3B
100
AcDbMaterial
  1
Global
  0
MLINESTYLE
  5
18
102
{ACAD_REACTORS
330
17
102
}
330
17
100
AcDbMlineStyle
  2
Standard
 70
     0
  3

 62
   256
 51
90.0
 52
90.0
 71
     2
 49
0.5
 62
   256
  6
BYLAYER
 49
-0.5
 62
   256
  6
BYLAYER
  0
ACDBPLACEHOLDER
  5
F
102
{ACAD_REACTORS
330
E
102
}
330
E
  0
VISUALSTYLE
  5
2F
102
{ACAD_REACTORS
330
2A
102
}
102
{ACAD_XDICTIONARY
360
2A5
102
}
330
2A
100
AcDbVisualStyle
  2
2dWireframe
 70
     4
 71
     0
 72
     2
 73
     0
 90
        0
 40
-0.6
 41
-30.0
 62
     5
 63
     7
 74
     1
 91
        4
 64
     7
 65
   257
 75
     1
175
     1
 42
1.0
 92
        0
 66
   257
 43
1.0
 76
     1
 77
     6
 78
     2
 67
     7
 79
     5
170
     0
171
     0
290
     0
174
     0
 93
        1
 44
0.0
173
     0
291
     0
 45
0.0
1001
ACAD
1000
AcDbSavedByObjectVersion
1070
     0
  0
VISUALSTYLE
  5
31
102
{ACAD_REACTORS
330
2A
102
}
102
{ACAD_XDICTIONARY
360
2A9
102
}
330
2A
100
AcDbVisualStyle
  2
3D Hidden
 70
     6
 71
     1
 72
     2
 73
     2
 90
        0
 40
-0.6
 41
-30.0
 62
     5
 63
     7
 74
     2
 91
        2
 64
     7
 65
   257
 75
     2
175
     1
 42
40.0
 92
        0
 66
   257
 43
1.0
 76
     1
 77
     6
 78
     2
 67
     7
 79
     3
170
     0
171
     0
290
     0
174
     0
 93
        1
 44
0.0
173
     0
291
     0
 45
0.0
1001
ACAD
1000
AcDbSavedByObjectVersion
1070
     0
  0
VISUALSTYLE
  5
30
102
{ACAD_REACTORS
330
2A
102
}
102
{ACAD_XDICTIONARY
360
2A7
102
}
330
2A
100
AcDbVisualStyle
  2
3dWireframe
 70
     5
 71
     0
 72
     2
 73
     0
 90
        0
 40
-0.6
 41
-30.0
 62
     5
 63
     7
 74
     1
 91
        4
 64
     7
 65
   257
 75
     1
175
     1
 42
1.0
 92
        0
 66
   257
 43
1.0
 76
     1
 77
     6
 78
     2
 67
     7
 79
     5
170
     0
171
     0
290
     0
174
     0
 93
        1
 44
0.0
173
     0
291
     0
 45
0.0
1001
ACAD
1000
AcDbSavedByObjectVersion
1070
     0
  0
VISUALSTYLE
  5
32
102
{ACAD_REACTORS
330
2A
102
}
102
{ACAD_XDICTIONARY
360
2AB
102
}
330
2A
100
AcDbVisualStyle
  2
Basic
 70
     7
 71
     1
 72
     0
 73
     1
 90
        0
 40
-0.6
 41
-30.0
 62
     5
 63
     7
 74
     0
 91
        4
 64
     7
 65
   257
 75
     1
175
     1
 42
1.0
 92
        8
 66
     7
 43
1.0
 76
     1
 77
     6
 78
     2
 67
     7
 79
     5
170
     0
171
     0
290
     0
174
     0
 93
        1
 44
0.0
173
     0
291
     1
 45
0.0
1001
ACAD
1000
AcDbSavedByObjectVersion
1070
     0
  0
VISUALSTYLE
  5
36
102
{ACAD_REACTORS
330
2A
102
}
102
{ACAD_XDICTIONARY
360
2B3
102
}
330
2A
100
AcDbVisualStyle
  2
Brighten
 70
    12
 71
     2
 72
     2
 73
     0
 90
        0
 40
-0.6
 41
-30.0
 62
     5
 63
     7
 74
     1
 91
        4
 64
     7
 65
   257
 75
     1
175
     1
 42
1.0
 92
        8
 66
     7
 43
1.0
 76
     1
 77
     6
 78
     2
 67
     7
 79
     5
170
     0
171
     0
290
     0
174
     0
 93
        1
 44
50.0
173
     0
291
     1
 45
0.0
1001
ACAD
1000
AcDbSavedByObjectVersion
1070
     0
  0
VISUALSTYLE
  5
3A
102
{ACAD_REACTORS
330
2A
102
}
102
{ACAD_XDICTIONARY
360
2BB
102
}
330
2A
100
AcDbVisualStyle
  2
ColorChange
 70
    16
 71
     2
 72
     2
 73
     3
 90
        0
 40
-0.6
 41
-30.0
 62
     5
 63
     8
 74
     1
 91
        4
 64
     7
 65
   257
 75
     1
175
     1
 42
1.0
 92
        8
 66
     8
 43
1.0
 76
     1
 77
     6
 78
     2
 67
     7
 79
     5
170
     0
171
     0
290
     0
174
     0
 93
        1
 44
0.0
173
     0
291
     1
 45
0.0
1001
ACAD
1000
AcDbSavedByObjectVersion
1070
     0
  0
VISUALSTYLE
  5
34
102
{ACAD_REACTORS
330
2A
102
}
102
{ACAD_XDICTIONARY
360
2AF
102
}
330
2A
100
AcDbVisualStyle
  2
Conceptual
 70
     9
 71
     3
 72
     2
 73
     0
 90
        0
 40
-0.6
 41
-30.0
 62
     5
 63
     7
 74
     2
 91
        2
 64
     7
 65
   257
 75
     1
175
     1
 42
40.0
 92
        8
 66
     7
 43
1.0
 76
     1
 77
     6
 78
     2
 67
     7
 79
     3
170
     0
171
     0
290
     0
174
     0
 93
        1
 44
0.0
173
     0
291
     0
 45
0.0
1001
ACAD
1000
AcDbSavedByObjectVersion
1070
     0
  0
VISUALSTYLE
  5
35
102
{ACAD_REACTORS
330
2A
102
}
102
{ACAD_XDICTIONARY
360
2B1
102
}
330
2A
100
AcDbVisualStyle
  2
Dim
 70
    11
 71
     2
 72
     2
 73
     0
 90
        0
 40
-0.6
 41
-30.0
 62
     5
 63
     7
 74
     1
 91
        4
 64
     7
 65
   257
 75
     1
175
     1
 42
1.0
 92
        8
 66
     7
 43
1.0
 76
     1
 77
     6
 78
     2
 67
     7
 79
     5
170
     0
171
     0
290
     0
174
     0
 93
        1
 44
-50.0
173
     0
291
     1
 45
0.0
1001
ACAD
1000
AcDbSavedByObjectVersion
1070
     0
  0
VISUALSTYLE
  5
39
102
{ACAD_REACTORS
330
2A
102
}
102
{ACAD_XDICTIONARY
360
2B9
102
}
330
2A
100
AcDbVisualStyle
  2
Facepattern
 70
    15
 71
     2
 72
     2
 73
     0
 90
        0
 40
-0.6
 41
-30.0
 62
     5
 63
     7
 74
     1
 91
        4
 64
     7
 65
   257
 75
     1
175
     1
 42
1.0
 92
        8
 66
     7
 43
1.0
 76
     1
 77
     6
 78
     2
 67
     7
 79
     5
170
     0
171
     0
290
     0
174
     0
 93
        1
 44
0.0
173
     0
291
     1
 45
0.0
1001
ACAD
1000
AcDbSavedByObjectVersion
1070
     0
  0
VISUALSTYLE
  5
2B
102
{ACAD_REACTORS
330
2A
102
}
102
{ACAD_XDICTIONARY
360
29D
102
}
330
2A
100
AcDbVisualStyle
  2
Flat
 70
     0
 71
     2
 72
     1
 73
     1
 90
        2
 40
-0.6
 41
30.0
 62
     5
 63
     7
 74
     0
 91
        4
 64
     7
 65
   257
 75
     1
175
     1
 42
1.0
 92
        8
 66
     7
 43
1.0
 76
     1
 77
     6
 78
     2
 67
     7
 79
     5
170
     0
171
     0
290
     0
174
     0
 93
       13
 44
0.0
173
     0
291
     1
 45
0.0
1001
ACAD
1000
AcDbSavedByObjectVersion
1070
     0
  0
VISUALSTYLE
  5
2C
102
{ACAD_REACTORS
330
2A
102
}
102
{ACAD_XDICTIONARY
360
29F
102
}
330
2A
100
AcDbVisualStyle
  2
FlatWithEdges
 70
     1
 71
     2
 72
     1
 73
     1
 90
        2
 40
-0.6
 41
30.0
 62
     5
 63
     7
 74
     1
 91
        4
 64
     7
 65
   257
 75
     1
175
     1
 42
1.0
 92
        0
 66
   257
 43
1.0
 76
     1
 77
     6
 78
     2
 67
     7
 79
     5
170
     0
171
     0
290
     0
174
     0
 93
       13
 44
0.0
173
     0
291
     1
 45
0.0
1001
ACAD
1000
AcDbSavedByObjectVersion
1070
     0
  0
VISUALSTYLE
  5
2D
102
{ACAD_REACTORS
330
2A
102
}
102
{ACAD_XDICTIONARY
360
2A1
102
}
330
2A
100
AcDbVisualStyle
  2
Gouraud
 70
     2
 71
     2
 72
     2
 73
     1
 90
        2
 40
-0.6
 41
30.0
 62
     5
 63
     7
 74
     0
 91
        4
 64
     7
 65
   257
 75
     1
175
     1
 42
1.0
 92
        0
 66
     7
 43
1.0
 76
     1
 77
     6
 78
     2
 67
     7
 79
     5
170
     0
171
     0
290
     0
174
     0
 93
       13
 44
0.0
173
     0
291
     1
 45
0.0
1001
ACAD
1000
AcDbSavedByObjectVersion
1070
     0
  0
VISUALSTYLE
  5
2E
102
{ACAD_REACTORS
330
2A
102
}
102
{ACAD_XDICTIONARY
360
2A3
102
}
330
2A
100
AcDbVisualStyle
  2
GouraudWithEdges
 70
     3
 71
     2
 72
     2
 73
     1
 90
        2
 40
-0.6
 41
30.0
 62
     5
 63
     7
 74
     1
 91
        4
 64
     7
 65
   257
 75
     1
175
     1
 42
1.0
 92
        0
 66
   257
 43
1.0
 76
     1
 77
     6
 78
     2
 67
     7
 79
     5
170
     0
171
     0
290
     0
174
     0
 93
       13
 44
0.0
173
     0
291
     1
 45
0.0
1001
ACAD
1000
AcDbSavedByObjectVersion
1070
     0
  0
VISUALSTYLE
  5
38
102
{ACAD_REACTORS
330
2A
102
}
102
{ACAD_XDICTIONARY
360
2B7
102
}
330
2A
100
AcDbVisualStyle
  2
Linepattern
 70
    14
 71
     2
 72
     2
 73
     0
 90
        0
 40
-0.6
 41
-30.0
 62
     5
 63
     7
 74
     1
 91
        4
 64
     7
 65
   257
 75
     7
175
     7
 42
1.0
 92
        8
 66
     7
 43
1.0
 76
     1
 77
     6
 78
     2
 67
     7
 79
     5
170
     0
171
     0
290
     0
174
     0
 93
        1
 44
0.0
173
     0
291
     1
 45
0.0
1001
ACAD
1000
AcDbSavedByObjectVersion
1070
     0
  0
VISUALSTYLE
  5
33
102
{ACAD_REACTORS
330
2A
102
}
102
{ACAD_XDICTIONARY
360
2AD
102
}
330
2A
100
AcDbVisualStyle
  2
Realistic
 70
     8
 71
     2
 72
     2
 73
     0
 90
        0
 40
-0.6
 41
-30.0
 62
     5
 63
     7
 74
     1
 91
        0
 64
     7
 65
   257
 75
     1
175
     1
 42
1.0
 92
        8
 66
     8
 43
1.0
 76
     1
 77
     6
 78
     2
 67
     7
 79
     5
170
     0
171
     0
290
     0
174
     0
 93
       13
 44
0.0
173
     0
291
     0
 45
0.0
1001
ACAD
1000
AcDbSavedByObjectVersion
1070
     0
  0
VISUALSTYLE
  5
37
102
{ACAD_REACTORS
330
2A
102
}
102
{ACAD_XDICTIONARY
360
2B5
102
}
330
2A
100
AcDbVisualStyle
  2
Thicken
 70
    13
 71
     2
 72
     2
 73
     0
 90
        0
 40
-0.6
 41
-30.0
 62
     5
 63
     7
 74
     1
 91
        4
 64
     7
 65
   257
 75
     1
175
     1
 42
1.0
 92
       12
 66
     7
 43
1.0
 76
     1
 77
     6
 78
     2
 67
     7
 79
     5
170
     0
171
     0
290
     0
174
     0
 93
        1
 44
0.0
173
     0
291
     1
 45
0.0
1001
ACAD
1000
AcDbSavedByObjectVersion
1070
     0
  0
DICTIONARYVAR
  5
29B
102
{ACAD_REACTORS
330
298
102
}
330
298
100
DictionaryVariables
280
     0
  1
2
  0
DICTIONARYVAR
  5
29C
102
{ACAD_REACTORS
330
298
102
}
330
298
100
DictionaryVariables
280
     0
  1
1
  0
DICTIONARY
  5
2BF
330
3D
100
AcDbDictionary
280
     1
281
     1
  3
ACAD_XREC_ROUNDTRIP
360
2C0
  0
DICTIONARY
  5
2BD
330
3C
100
AcDbDictionary
280
     1
281
     1
  3
ACAD_XREC_ROUNDTRIP
360
2BE
  0
DICTIONARY
  5
2C1
330
3E
100
AcDbDictionary
280
     1
281
     1
  3
ACAD_XREC_ROUNDTRIP
360
2C2
  0
DICTIONARY
  5
2A5
330
2F
100
AcDbDictionary
280
     1
281
     1
  3
ACAD_XREC_ROUNDTRIP
360
2A6
  0
DICTIONARY
  5
2A9
330
31
100
AcDbDictionary
280
     1
281
     1
  3
ACAD_XREC_ROUNDTRIP
360
2AA
  0
DICTIONARY
  5
2A7
330
30
100
AcDbDictionary
280
     1
281
     1
  3
ACAD_XREC_ROUNDTRIP
360
2A8
  0
DICTIONARY
  5
2AB
330
32
100
AcDbDictionary
280
     1
281
     1
  3
ACAD_XREC_ROUNDTRIP
360
2AC
  0
DICTIONARY
  5
2B3
330
36
100
AcDbDictionary
280
     1
281
     1
  3
ACAD_XREC_ROUNDTRIP
360
2B4
  0
DICTIONARY
  5
2BB
330
3A
100
AcDbDictionary
280
     1
281
     1
  3
ACAD_XREC_ROUNDTRIP
360
2BC
  0
DICTIONARY
  5
2AF
330
34
100
AcDbDictionary
280
     1
281
     1
  3
ACAD_XREC_ROUNDTRIP
360
2B0
  0
DICTIONARY
  5
2B1
330
35
100
AcDbDictionary
280
     1
281
     1
  3
ACAD_XREC_ROUNDTRIP
360
2B2
  0
DICTIONARY
  5
2B9
330
39
100
AcDbDictionary
280
     1
281
     1
  3
ACAD_XREC_ROUNDTRIP
360
2BA
  0
DICTIONARY
  5
29D
330
2B
100
AcDbDictionary
280
     1
281
     1
  3
ACAD_XREC_ROUNDTRIP
360
29E
  0
DICTIONARY
  5
29F
330
2C
100
AcDbDictionary
280
     1
281
     1
  3
ACAD_XREC_ROUNDTRIP
360
2A0
  0
DICTIONARY
  5
2A1
330
2D
100
AcDbDictionary
280
     1
281
     1
  3
ACAD_XREC_ROUNDTRIP
360
2A2
  0
DICTIONARY
  5
2A3
330
2E
100
AcDbDictionary
280
     1
281
     1
  3
ACAD_XREC_ROUNDTRIP
360
2A4
  0
DICTIONARY
  5
2B7
330
38
100
AcDbDictionary
280
     1
281
     1
  3
ACAD_XREC_ROUNDTRIP
360
2B8
  0
DICTIONARY
  5
2AD
330
33
100
AcDbDictionary
280
     1
281
     1
  3
ACAD_XREC_ROUNDTRIP
360
2AE
  0
DICTIONARY
  5
2B5
330
37
100
AcDbDictionary
280
     1
281
     1
  3
ACAD_XREC_ROUNDTRIP
360
2B6
  0
XRECORD
  5
2C0
102
{ACAD_REACTORS
330
2BF
102
}
330
2BF
100
AcDbXrecord
280
     1
102
MATERIAL
148
0.0
149
0.0
149
0.0
 93
        0
 94
      127
282
     0
 72
     1
 77
     1
171
     1
175
     1
179
     1
273
     0
  0
XRECORD
  5
2BE
102
{ACAD_REACTORS
330
2BD
102
}
330
2BD
100
AcDbXrecord
280
     1
102
MATERIAL
148
0.0
149
0.0
149
0.0
 93
        0
 94
      127
282
     0
 72
     1
 77
     1
171
     1
175
     1
179
     1
273
     0
  0
XRECORD
  5
2C2
102
{ACAD_REACTORS
330
2C1
102
}
330
2C1
100
AcDbXrecord
280
     1
102
MATERIAL
148
0.0
149
0.0
149
0.0
 93
        0
 94
      127
282
     0
 72
     1
 77
     1
171
     1
175
     1
179
     1
273
     0
  0
XRECORD
  5
2A6
102
{ACAD_REACTORS
330
2A5
102
}
330
2A5
100
AcDbXrecord
280
     1
102
RTVSPropertyOp0
 70
     1
102
RTVSPropertyOp1
 70
     1
102
RTVSPropertyOp2
 70
     1
102
RTVSPropertyOp3
 70
     1
102
RTVSPropertyOp4
 70
     1
102
RTVSPropertyOp5
 70
     1
102
RTVSPropertyOp6
 70
     1
102
RTVSPropertyOp7
 70
     1
102
RTVSPropertyOp8
 70
     1
102
RTVSPropertyOp9
 70
     1
102
RTVSPropertyOp10
 70
     1
102
RTVSPropertyOp11
 70
     1
102
RTVSPropertyOp12
 70
     1
102
RTVSPropertyOp13
 70
     1
102
RTVSPropertyOp14
 70
     1
102
RTVSPropertyOp15
 70
     1
102
RTVSPropertyOp16
 70
     1
102
RTVSPropertyOp17
 70
     1
102
RTVSPropertyOp18
 70
     1
102
RTVSPropertyOp19
 70
     1
102
RTVSPropertyOp20
 70
     1
102
RTVSPropertyOp21
 70
     1
102
RTVSPropertyOp22
 70
     1
102
RTVSPropertyOp23
 70
     1
102
RTVSPropertyOp24
 70
     1
102
RTVSPropertyOp25
 70
     1
102
RTVSPropertyOp26
 70
     1
102
RTVSPropertyOp27
 70
     1
102
RTVSPropertyOp28
 70
     1
102
RTVSPropertyOp29
 70
     1
102
RTVSPropertyOp30
 70
     1
102
RTVSPropertyOp31
 70
     1
102
RTVSPropertyOp32
 70
     1
  0
XRECORD
  5
2AA
102
{ACAD_REACTORS
330
2A9
102
}
330
2A9
100
AcDbXrecord
280
     1
102
RTVSPropertyOp0
 70
     1
102
RTVSPropertyOp1
 70
     1
102
RTVSPropertyOp2
 70
     1
102
RTVSPropertyOp3
 70
     1
102
RTVSPropertyOp4
 70
     1
102
RTVSPropertyOp5
 70
     1
102
RTVSPropertyOp6
 70
     1
102
RTVSPropertyOp7
 70
     1
102
RTVSPropertyOp8
 70
     1
102
RTVSPropertyOp9
 70
     1
102
RTVSPropertyOp10
 70
     1
102
RTVSPropertyOp11
 70
     1
102
RTVSPropertyOp12
 70
     1
102
RTVSPropertyOp13
 70
     1
102
RTVSPropertyOp14
 70
     1
102
RTVSPropertyOp15
 70
     1
102
RTVSPropertyOp16
 70
     1
102
RTVSPropertyOp17
 70
     1
102
RTVSPropertyOp18
 70
     1
102
RTVSPropertyOp19
 70
     1
102
RTVSPropertyOp20
 70
     1
102
RTVSPropertyOp21
 70
     1
102
RTVSPropertyOp22
 70
     1
102
RTVSPropertyOp23
 70
     1
102
RTVSPropertyOp24
 70
     1
102
RTVSPropertyOp25
 70
     1
102
RTVSPropertyOp26
 70
     1
102
RTVSPropertyOp27
 70
     1
102
RTVSPropertyOp28
 70
     1
102
RTVSPropertyOp29
 70
     1
102
RTVSPropertyOp30
 70
     1
102
RTVSPropertyOp31
 70
     1
102
RTVSPropertyOp32
 70
     1
  0
XRECORD
  5
2A8
102
{ACAD_REACTORS
330
2A7
102
}
330
2A7
100
AcDbXrecord
280
     1
102
RTVSPropertyOp0
 70
     1
102
RTVSPropertyOp1
 70
     1
102
RTVSPropertyOp2
 70
     1
102
RTVSPropertyOp3
 70
     1
102
RTVSPropertyOp4
 70
     1
102
RTVSPropertyOp5
 70
     1
102
RTVSPropertyOp6
 70
     1
102
RTVSPropertyOp7
 70
     1
102
RTVSPropertyOp8
 70
     1
102
RTVSPropertyOp9
 70
     1
102
RTVSPropertyOp10
 70
     1
102
RTVSPropertyOp11
 70
     1
102
RTVSPropertyOp12
 70
     1
102
RTVSPropertyOp13
 70
     1
102
RTVSPropertyOp14
 70
     1
102
RTVSPropertyOp15
 70
     1
102
RTVSPropertyOp16
 70
     1
102
RTVSPropertyOp17
 70
     1
102
RTVSPropertyOp18
 70
     1
102
RTVSPropertyOp19
 70
     1
102
RTVSPropertyOp20
 70
     1
102
RTVSPropertyOp21
 70
     1
102
RTVSPropertyOp22
 70
     1
102
RTVSPropertyOp23
 70
     1
102
RTVSPropertyOp24
 70
     1
102
RTVSPropertyOp25
 70
     1
102
RTVSPropertyOp26
 70
     1
102
RTVSPropertyOp27
 70
     1
102
RTVSPropertyOp28
 70
     1
102
RTVSPropertyOp29
 70
     1
102
RTVSPropertyOp30
 70
     1
102
RTVSPropertyOp31
 70
     1
102
RTVSPropertyOp32
 70
     1
  0
XRECORD
  5
2AC
102
{ACAD_REACTORS
330
2AB
102
}
330
2AB
100
AcDbXrecord
280
     1
102
RTVSPropertyOp0
 70
     1
102
RTVSPropertyOp1
 70
     1
102
RTVSPropertyOp2
 70
     1
102
RTVSPropertyOp3
 70
     1
102
RTVSPropertyOp4
 70
     1
102
RTVSPropertyOp5
 70
     1
102
RTVSPropertyOp6
 70
     1
102
RTVSPropertyOp7
 70
     1
102
RTVSPropertyOp8
 70
     1
102
RTVSPropertyOp9
 70
     1
102
RTVSPropertyOp10
 70
     1
102
RTVSPropertyOp11
 70
     1
102
RTVSPropertyOp12
 70
     1
102
RTVSPropertyOp13
 70
     1
102
RTVSPropertyOp14
 70
     1
102
RTVSPropertyOp15
 70
     1
102
RTVSPropertyOp16
 70
     1
102
RTVSPropertyOp17
 70
     1
102
RTVSPropertyOp18
 70
     1
102
RTVSPropertyOp19
 70
     1
102
RTVSPropertyOp20
 70
     1
102
RTVSPropertyOp21
 70
     1
102
RTVSPropertyOp22
 70
     1
102
RTVSPropertyOp23
 70
     1
102
RTVSPropertyOp24
 70
     1
102
RTVSPropertyOp25
 70
     1
102
RTVSPropertyOp26
 70
     1
102
RTVSPropertyOp27
 70
     1
102
RTVSPropertyOp28
 70
     1
102
RTVSPropertyOp29
 70
     1
102
RTVSPropertyOp30
 70
     1
102
RTVSPropertyOp31
 70
     1
102
RTVSPropertyOp32
 70
     1
  0
XRECORD
  5
2B4
102
{ACAD_REACTORS
330
2B3
102
}
330
2B3
100
AcDbXrecord
280
     1
102
RTVSPropertyOp0
 70
     1
102
RTVSPropertyOp1
 70
     1
102
RTVSPropertyOp2
 70
     1
102
RTVSPropertyOp3
 70
     1
102
RTVSPropertyOp4
 70
     1
102
RTVSPropertyOp5
 70
     1
102
RTVSPropertyOp6
 70
     1
102
RTVSPropertyOp7
 70
     1
102
RTVSPropertyOp8
 70
     1
102
RTVSPropertyOp9
 70
     1
102
RTVSPropertyOp10
 70
     1
102
RTVSPropertyOp11
 70
     1
102
RTVSPropertyOp12
 70
     1
102
RTVSPropertyOp13
 70
     1
102
RTVSPropertyOp14
 70
     1
102
RTVSPropertyOp15
 70
     1
102
RTVSPropertyOp16
 70
     1
102
RTVSPropertyOp17
 70
     1
102
RTVSPropertyOp18
 70
     1
102
RTVSPropertyOp19
 70
     1
102
RTVSPropertyOp20
 70
     1
102
RTVSPropertyOp21
 70
     1
102
RTVSPropertyOp22
 70
     1
102
RTVSPropertyOp23
 70
     1
102
RTVSPropertyOp24
 70
     1
102
RTVSPropertyOp25
 70
     1
102
RTVSPropertyOp26
 70
     1
102
RTVSPropertyOp27
 70
     1
102
RTVSPropertyOp28
 70
     1
102
RTVSPropertyOp29
 70
     1
102
RTVSPropertyOp30
 70
     1
102
RTVSPropertyOp31
 70
     1
102
RTVSPropertyOp32
 70
     1
  0
XRECORD
  5
2BC
102
{ACAD_REACTORS
330
2BB
102
}
330
2BB
100
AcDbXrecord
280
     1
102
RTVSPropertyOp0
 70
     1
102
RTVSPropertyOp1
 70
     1
102
RTVSPropertyOp2
 70
     1
102
RTVSPropertyOp3
 70
     1
102
RTVSPropertyOp4
 70
     1
102
RTVSPropertyOp5
 70
     1
102
RTVSPropertyOp6
 70
     1
102
RTVSPropertyOp7
 70
     1
102
RTVSPropertyOp8
 70
     1
102
RTVSPropertyOp9
 70
     1
102
RTVSPropertyOp10
 70
     1
102
RTVSPropertyOp11
 70
     1
102
RTVSPropertyOp12
 70
     1
102
RTVSPropertyOp13
 70
     1
102
RTVSPropertyOp14
 70
     1
102
RTVSPropertyOp15
 70
     1
102
RTVSPropertyOp16
 70
     1
102
RTVSPropertyOp17
 70
     1
102
RTVSPropertyOp18
 70
     1
102
RTVSPropertyOp19
 70
     1
102
RTVSPropertyOp20
 70
     1
102
RTVSPropertyOp21
 70
     1
102
RTVSPropertyOp22
 70
     1
102
RTVSPropertyOp23
 70
     1
102
RTVSPropertyOp24
 70
     1
102
RTVSPropertyOp25
 70
     1
102
RTVSPropertyOp26
 70
     1
102
RTVSPropertyOp27
 70
     1
102
RTVSPropertyOp28
 70
     1
102
RTVSPropertyOp29
 70
     1
102
RTVSPropertyOp30
 70
     1
102
RTVSPropertyOp31
 70
     1
102
RTVSPropertyOp32
 70
     1
  0
XRECORD
  5
2B0
102
{ACAD_REACTORS
330
2AF
102
}
330
2AF
100
AcDbXrecord
280
     1
102
RTVSPropertyOp0
 70
     1
102
RTVSPropertyOp1
 70
     1
102
RTVSPropertyOp2
 70
     1
102
RTVSPropertyOp3
 70
     1
102
RTVSPropertyOp4
 70
     1
102
RTVSPropertyOp5
 70
     1
102
RTVSPropertyOp6
 70
     1
102
RTVSPropertyOp7
 70
     1
102
RTVSPropertyOp8
 70
     1
102
RTVSPropertyOp9
 70
     1
102
RTVSPropertyOp10
 70
     1
102
RTVSPropertyOp11
 70
     1
102
RTVSPropertyOp12
 70
     1
102
RTVSPropertyOp13
 70
     1
102
RTVSPropertyOp14
 70
     1
102
RTVSPropertyOp15
 70
     1
102
RTVSPropertyOp16
 70
     1
102
RTVSPropertyOp17
 70
     1
102
RTVSPropertyOp18
 70
     1
102
RTVSPropertyOp19
 70
     1
102
RTVSPropertyOp20
 70
     1
102
RTVSPropertyOp21
 70
     1
102
RTVSPropertyOp22
 70
     1
102
RTVSPropertyOp23
 70
     1
102
RTVSPropertyOp24
 70
     1
102
RTVSPropertyOp25
 70
     1
102
RTVSPropertyOp26
 70
     1
102
RTVSPropertyOp27
 70
     1
102
RTVSPropertyOp28
 70
     1
102
RTVSPropertyOp29
 70
     1
102
RTVSPropertyOp30
 70
     1
102
RTVSPropertyOp31
 70
     1
102
RTVSPropertyOp32
 70
     1
  0
XRECORD
  5
2B2
102
{ACAD_REACTORS
330
2B1
102
}
330
2B1
100
AcDbXrecord
280
     1
102
RTVSPropertyOp0
 70
     1
102
RTVSPropertyOp1
 70
     1
102
RTVSPropertyOp2
 70
     1
102
RTVSPropertyOp3
 70
     1
102
RTVSPropertyOp4
 70
     1
102
RTVSPropertyOp5
 70
     1
102
RTVSPropertyOp6
 70
     1
102
RTVSPropertyOp7
 70
     1
102
RTVSPropertyOp8
 70
     1
102
RTVSPropertyOp9
 70
     1
102
RTVSPropertyOp10
 70
     1
102
RTVSPropertyOp11
 70
     1
102
RTVSPropertyOp12
 70
     1
102
RTVSPropertyOp13
 70
     1
102
RTVSPropertyOp14
 70
     1
102
RTVSPropertyOp15
 70
     1
102
RTVSPropertyOp16
 70
     1
102
RTVSPropertyOp17
 70
     1
102
RTVSPropertyOp18
 70
     1
102
RTVSPropertyOp19
 70
     1
102
RTVSPropertyOp20
 70
     1
102
RTVSPropertyOp21
 70
     1
102
RTVSPropertyOp22
 70
     1
102
RTVSPropertyOp23
 70
     1
102
RTVSPropertyOp24
 70
     1
102
RTVSPropertyOp25
 70
     1
102
RTVSPropertyOp26
 70
     1
102
RTVSPropertyOp27
 70
     1
102
RTVSPropertyOp28
 70
     1
102
RTVSPropertyOp29
 70
     1
102
RTVSPropertyOp30
 70
     1
102
RTVSPropertyOp31
 70
     1
102
RTVSPropertyOp32
 70
     1
  0
XRECORD
  5
2BA
102
{ACAD_REACTORS
330
2B9
102
}
330
2B9
100
AcDbXrecord
280
     1
102
RTVSPropertyOp0
 70
     1
102
RTVSPropertyOp1
 70
     1
102
RTVSPropertyOp2
 70
     1
102
RTVSPropertyOp3
 70
     1
102
RTVSPropertyOp4
 70
     1
102
RTVSPropertyOp5
 70
     1
102
RTVSPropertyOp6
 70
     1
102
RTVSPropertyOp7
 70
     1
102
RTVSPropertyOp8
 70
     1
102
RTVSPropertyOp9
 70
     1
102
RTVSPropertyOp10
 70
     1
102
RTVSPropertyOp11
 70
     1
102
RTVSPropertyOp12
 70
     1
102
RTVSPropertyOp13
 70
     1
102
RTVSPropertyOp14
 70
     1
102
RTVSPropertyOp15
 70
     1
102
RTVSPropertyOp16
 70
     1
102
RTVSPropertyOp17
 70
     1
102
RTVSPropertyOp18
 70
     1
102
RTVSPropertyOp19
 70
     1
102
RTVSPropertyOp20
 70
     1
102
RTVSPropertyOp21
 70
     1
102
RTVSPropertyOp22
 70
     1
102
RTVSPropertyOp23
 70
     1
102
RTVSPropertyOp24
 70
     1
102
RTVSPropertyOp25
 70
     1
102
RTVSPropertyOp26
 70
     1
102
RTVSPropertyOp27
 70
     1
102
RTVSPropertyOp28
 70
     1
102
RTVSPropertyOp29
 70
     1
102
RTVSPropertyOp30
 70
     1
102
RTVSPropertyOp31
 70
     1
102
RTVSPropertyOp32
 70
     1
  0
XRECORD
  5
29E
102
{ACAD_REACTORS
330
29D
102
}
330
29D
100
AcDbXrecord
280
     1
102
RTVSPropertyOp0
 70
     1
102
RTVSPropertyOp1
 70
     1
102
RTVSPropertyOp2
 70
     1
102
RTVSPropertyOp3
 70
     1
102
RTVSPropertyOp4
 70
     1
102
RTVSPropertyOp5
 70
     1
102
RTVSPropertyOp6
 70
     1
102
RTVSPropertyOp7
 70
     1
102
RTVSPropertyOp8
 70
     1
102
RTVSPropertyOp9
 70
     1
102
RTVSPropertyOp10
 70
     1
102
RTVSPropertyOp11
 70
     1
102
RTVSPropertyOp12
 70
     1
102
RTVSPropertyOp13
 70
     1
102
RTVSPropertyOp14
 70
     1
102
RTVSPropertyOp15
 70
     1
102
RTVSPropertyOp16
 70
     1
102
RTVSPropertyOp17
 70
     1
102
RTVSPropertyOp18
 70
     1
102
RTVSPropertyOp19
 70
     1
102
RTVSPropertyOp20
 70
     1
102
RTVSPropertyOp21
 70
     1
102
RTVSPropertyOp22
 70
     1
102
RTVSPropertyOp23
 70
     1
102
RTVSPropertyOp24
 70
     1
102
RTVSPropertyOp25
 70
     1
102
RTVSPropertyOp26
 70
     1
102
RTVSPropertyOp27
 70
     1
102
RTVSPropertyOp28
 70
     1
102
RTVSPropertyOp29
 70
     1
102
RTVSPropertyOp30
 70
     1
102
RTVSPropertyOp31
 70
     1
102
RTVSPropertyOp32
 70
     1
  0
XRECORD
  5
2A0
102
{ACAD_REACTORS
330
29F
102
}
330
29F
100
AcDbXrecord
280
     1
102
RTVSPropertyOp0
 70
     1
102
RTVSPropertyOp1
 70
     1
102
RTVSPropertyOp2
 70
     1
102
RTVSPropertyOp3
 70
     1
102
RTVSPropertyOp4
 70
     1
102
RTVSPropertyOp5
 70
     1
102
RTVSPropertyOp6
 70
     1
102
RTVSPropertyOp7
 70
     1
102
RTVSPropertyOp8
 70
     1
102
RTVSPropertyOp9
 70
     1
102
RTVSPropertyOp10
 70
     1
102
RTVSPropertyOp11
 70
     1
102
RTVSPropertyOp12
 70
     1
102
RTVSPropertyOp13
 70
     1
102
RTVSPropertyOp14
 70
     1
102
RTVSPropertyOp15
 70
     1
102
RTVSPropertyOp16
 70
     1
102
RTVSPropertyOp17
 70
     1
102
RTVSPropertyOp18
 70
     1
102
RTVSPropertyOp19
 70
     1
102
RTVSPropertyOp20
 70
     1
102
RTVSPropertyOp21
 70
     1
102
RTVSPropertyOp22
 70
     1
102
RTVSPropertyOp23
 70
     1
102
RTVSPropertyOp24
 70
     1
102
RTVSPropertyOp25
 70
     1
102
RTVSPropertyOp26
 70
     1
102
RTVSPropertyOp27
 70
     1
102
RTVSPropertyOp28
 70
     1
102
RTVSPropertyOp29
 70
     1
102
RTVSPropertyOp30
 70
     1
102
RTVSPropertyOp31
 70
     1
102
RTVSPropertyOp32
 70
     1
  0
XRECORD
  5
2A2
102
{ACAD_REACTORS
330
2A1
102
}
330
2A1
100
AcDbXrecord
280
     1
102
RTVSPropertyOp0
 70
     1
102
RTVSPropertyOp1
 70
     1
102
RTVSPropertyOp2
 70
     1
102
RTVSPropertyOp3
 70
     1
102
RTVSPropertyOp4
 70
     1
102
RTVSPropertyOp5
 70
     1
102
RTVSPropertyOp6
 70
     1
102
RTVSPropertyOp7
 70
     1
102
RTVSPropertyOp8
 70
     1
102
RTVSPropertyOp9
 70
     1
102
RTVSPropertyOp10
 70
     1
102
RTVSPropertyOp11
 70
     1
102
RTVSPropertyOp12
 70
     1
102
RTVSPropertyOp13
 70
     1
102
RTVSPropertyOp14
 70
     1
102
RTVSPropertyOp15
 70
     1
102
RTVSPropertyOp16
 70
     1
102
RTVSPropertyOp17
 70
     1
102
RTVSPropertyOp18
 70
     1
102
RTVSPropertyOp19
 70
     1
102
RTVSPropertyOp20
 70
     1
102
RTVSPropertyOp21
 70
     1
102
RTVSPropertyOp22
 70
     1
102
RTVSPropertyOp23
 70
     1
102
RTVSPropertyOp24
 70
     1
102
RTVSPropertyOp25
 70
     1
102
RTVSPropertyOp26
 70
     1
102
RTVSPropertyOp27
 70
     1
102
RTVSPropertyOp28
 70
     1
102
RTVSPropertyOp29
 70
     1
102
RTVSPropertyOp30
 70
     1
102
RTVSPropertyOp31
 70
     1
102
RTVSPropertyOp32
 70
     1
  0
XRECORD
  5
2A4
102
{ACAD_REACTORS
330
2A3
102
}
330
2A3
100
AcDbXrecord
280
     1
102
RTVSPropertyOp0
 70
     1
102
RTVSPropertyOp1
 70
     1
102
RTVSPropertyOp2
 70
     1
102
RTVSPropertyOp3
 70
     1
102
RTVSPropertyOp4
 70
     1
102
RTVSPropertyOp5
 70
     1
102
RTVSPropertyOp6
 70
     1
102
RTVSPropertyOp7
 70
     1
102
RTVSPropertyOp8
 70
     1
102
RTVSPropertyOp9
 70
     1
102
RTVSPropertyOp10
 70
     1
102
RTVSPropertyOp11
 70
     1
102
RTVSPropertyOp12
 70
     1
102
RTVSPropertyOp13
 70
     1
102
RTVSPropertyOp14
 70
     1
102
RTVSPropertyOp15
 70
     1
102
RTVSPropertyOp16
 70
     1
102
RTVSPropertyOp17
 70
     1
102
RTVSPropertyOp18
 70
     1
102
RTVSPropertyOp19
 70
     1
102
RTVSPropertyOp20
 70
     1
102
RTVSPropertyOp21
 70
     1
102
RTVSPropertyOp22
 70
     1
102
RTVSPropertyOp23
 70
     1
102
RTVSPropertyOp24
 70
     1
102
RTVSPropertyOp25
 70
     1
102
RTVSPropertyOp26
 70
     1
102
RTVSPropertyOp27
 70
     1
102
RTVSPropertyOp28
 70
     1
102
RTVSPropertyOp29
 70
     1
102
RTVSPropertyOp30
 70
     1
102
RTVSPropertyOp31
 70
     1
102
RTVSPropertyOp32
 70
     1
  0
XRECORD
  5
2B8
102
{ACAD_REACTORS
330
2B7
102
}
330
2B7
100
AcDbXrecord
280
     1
102
RTVSPropertyOp0
 70
     1
102
RTVSPropertyOp1
 70
     1
102
RTVSPropertyOp2
 70
     1
102
RTVSPropertyOp3
 70
     1
102
RTVSPropertyOp4
 70
     1
102
RTVSPropertyOp5
 70
     1
102
RTVSPropertyOp6
 70
     1
102
RTVSPropertyOp7
 70
     1
102
RTVSPropertyOp8
 70
     1
102
RTVSPropertyOp9
 70
     1
102
RTVSPropertyOp10
 70
     1
102
RTVSPropertyOp11
 70
     1
102
RTVSPropertyOp12
 70
     1
102
RTVSPropertyOp13
 70
     1
102
RTVSPropertyOp14
 70
     1
102
RTVSPropertyOp15
 70
     1
102
RTVSPropertyOp16
 70
     1
102
RTVSPropertyOp17
 70
     1
102
RTVSPropertyOp18
 70
     1
102
RTVSPropertyOp19
 70
     1
102
RTVSPropertyOp20
 70
     1
102
RTVSPropertyOp21
 70
     1
102
RTVSPropertyOp22
 70
     1
102
RTVSPropertyOp23
 70
     1
102
RTVSPropertyOp24
 70
     1
102
RTVSPropertyOp25
 70
     1
102
RTVSPropertyOp26
 70
     1
102
RTVSPropertyOp27
 70
     1
102
RTVSPropertyOp28
 70
     1
102
RTVSPropertyOp29
 70
     1
102
RTVSPropertyOp30
 70
     1
102
RTVSPropertyOp31
 70
     1
102
RTVSPropertyOp32
 70
     1
  0
XRECORD
  5
2AE
102
{ACAD_REACTORS
330
2AD
102
}
330
2AD
100
AcDbXrecord
280
     1
102
RTVSPropertyOp0
 70
     1
102
RTVSPropertyOp1
 70
     1
102
RTVSPropertyOp2
 70
     1
102
RTVSPropertyOp3
 70
     1
102
RTVSPropertyOp4
 70
     1
102
RTVSPropertyOp5
 70
     1
102
RTVSPropertyOp6
 70
     1
102
RTVSPropertyOp7
 70
     1
102
RTVSPropertyOp8
 70
     1
102
RTVSPropertyOp9
 70
     1
102
RTVSPropertyOp10
 70
     1
102
RTVSPropertyOp11
 70
     1
102
RTVSPropertyOp12
 70
     1
102
RTVSPropertyOp13
 70
     1
102
RTVSPropertyOp14
 70
     1
102
RTVSPropertyOp15
 70
     1
102
RTVSPropertyOp16
 70
     1
102
RTVSPropertyOp17
 70
     1
102
RTVSPropertyOp18
 70
     1
102
RTVSPropertyOp19
 70
     1
102
RTVSPropertyOp20
 70
     1
102
RTVSPropertyOp21
 70
     1
102
RTVSPropertyOp22
 70
     1
102
RTVSPropertyOp23
 70
     1
102
RTVSPropertyOp24
 70
     1
102
RTVSPropertyOp25
 70
     1
102
RTVSPropertyOp26
 70
     1
102
RTVSPropertyOp27
 70
     1
102
RTVSPropertyOp28
 70
     1
102
RTVSPropertyOp29
 70
     1
102
RTVSPropertyOp30
 70
     1
102
RTVSPropertyOp31
 70
     1
102
RTVSPropertyOp32
 70
     1
  0
XRECORD
  5
2B6
102
{ACAD_REACTORS
330
2B5
102
}
330
2B5
100
AcDbXrecord
280
     1
102
RTVSPropertyOp0
 70
     1
102
RTVSPropertyOp1
 70
     1
102
RTVSPropertyOp2
 70
     1
102
RTVSPropertyOp3
 70
     1
102
RTVSPropertyOp4
 70
     1
102
RTVSPropertyOp5
 70
     1
102
RTVSPropertyOp6
 70
     1
102
RTVSPropertyOp7
 70
     1
102
RTVSPropertyOp8
 70
     1
102
RTVSPropertyOp9
 70
     1
102
RTVSPropertyOp10
 70
     1
102
RTVSPropertyOp11
 70
     1
102
RTVSPropertyOp12
 70
     1
102
RTVSPropertyOp13
 70
     1
102
RTVSPropertyOp14
 70
     1
102
RTVSPropertyOp15
 70
     1
102
RTVSPropertyOp16
 70
     1
102
RTVSPropertyOp17
 70
     1
102
RTVSPropertyOp18
 70
     1
102
RTVSPropertyOp19
 70
     1
102
RTVSPropertyOp20
 70
     1
102
RTVSPropertyOp21
 70
     1
102
RTVSPropertyOp22
 70
     1
102
RTVSPropertyOp23
 70
     1
102
RTVSPropertyOp24
 70
     1
102
RTVSPropertyOp25
 70
     1
102
RTVSPropertyOp26
 70
     1
102
RTVSPropertyOp27
 70
     1
102
RTVSPropertyOp28
 70
     1
102
RTVSPropertyOp29
 70
     1
102
RTVSPropertyOp30
 70
     1
102
RTVSPropertyOp31
 70
     1
102
RTVSPropertyOp32
 70
     1
  0
ENDSEC
  0
EOF
